Развод в большом городе / What Maisie Knew (Скотт МакГихи / Scott McGehee, Дэвид Сигел / David Siegel) [2012, США, драма, BDRip 720p] MVO (online movies) + DVO (Белоконский, Истомина) + VO (D-speaker) + Sub Rus, Eng + Original Eng

Ответить на тему
 
Автор Сообщение

user ®

Стаж: 7 лет 7 месяцев

Сообщений: 20008

Пост Пост: #1 от 04-Май-2015 13:36

[Цитировать]

РАЗВОД В БОЛЬШОМ ГОРОДЕ
Страна: США
Студия: 10th Hole Productions, 120dB Films
Жанр: драма
Год выпуска: 2012
Продолжительность: 01:38:55
Перевод: Профессиональный (многоголосый закадровый) - online movies
Перевод 2: Любительский (двухголосый закадровый) - Артём Белоконский, Кристина Истомина
Перевод 3: Одноголосый закадровый - D-speaker
Cубтитры: русские (notabenoid), английские
Оригинальная аудиодорожка: английский
Режиссер: Скотт МакГихи / Scott McGehee, Дэвид Сигел / David Siegel
В ролях: Джулианна Мур, Александр Скарсгард, Оната Эйприл, Джоэнна Вандерхам, Стив Куган, Сэди Рэй, Джесси Стоун Спадаччини, Диана Гарсиа, Амелия Кэмпбелл, Мэдди Кормэн
Описание:
Вольная экранизация одноименного романа Генри Джеймса, изданного в 1897 году. Действие перенесено в современный Нью-Йорк.
Героиня истории — шестилетняя девочка Мейзи, ставшая свидетельницей тяжелого развода своих родителей — рок-звезды и арт-дилера. У каждого свои заботы и дела, что они совсем забывают про то, что у них есть дочь. Ее нужно забирать из садика, сидеть с ней, когда она заболеет, укладывать ее спать, родителям не до нее. И на кого же оставить малютку Мэйзи? Конечно на бывшую няню — нынешнюю жену папы, Марго, и на нового мужа мамы — бармена Линкольна...
Рип: СИНЕМАНИЯ (из которого была удалена англ. дорожка TrueHD)
Сэмпл: https://yadi.sk/i/zOdZk-xdgMqpM
Тип релиза: BDRip 720p
Контейнер: MKV
Видео: MPEG-4 AVC, 7458 Кбит/с, 1280x534, 23,976 кадр/сек
Аудио: AC3, 2 ch, 192 Кбит/с, 48,0 КГц
Аудио 2: AC3, 6 ch, 640 Кбит/с, 48,0 КГц
Аудио 3: AC3, 2 ch, 128 Кбит/с, 48,0 КГц
Аудио 4: AC3, 6 ch, 640 Кбит/с, 48,0 КГц

MediaInfo
Общее
Уникальный идентификатор : 245182833511659691620818394931531571670 (0xB8747EFFD18DAA49A0CFA9FAC6FB61D6)
Полное имя : G:\What Maisie Knew 720p (2012).mkv
Формат : Matroska
Версия формата : Version 4 / Version 2
Размер файла : 6,26 Гбайт
Продолжительность : 1 ч. 38 м.
Общий поток : 9061 Кбит/сек
Название фильма : Release Group СПАМ
Дата кодирования : UTC 2015-04-30 17:17:23
Программа кодирования : mkvmerge v7.8.0 ('River Man') 32bit built on Mar 27 2015 16:18:02
Библиотека кодирования : libebml v1.3.1 libmatroska v1.4.2
DURATION : 01:33:50.083000000
NUMBER_OF_FRAMES : 1345
NUMBER_OF_BYTES : 40839
_STATISTICS_WRITING_APP : mkvmerge v7.8.0 ('River Man') 32bit built on Mar 27 2015 16:18:02
_STATISTICS_WRITING_DATE_UTC : 2015-04-30 17:17:23
_STATISTICS_TAGS : BPS DURATION NUMBER_OF_FRAMES NUMBER_OF_BYTES
Видео
Идентификатор : 1
Формат : AVC
Формат/Информация : Advanced Video Codec
Профиль формата : High@L4.1
Параметр CABAC формата : Да
Параметр ReFrames формата : 12 кадров
Идентификатор кодека : V_MPEG4/ISO/AVC
Продолжительность : 1 ч. 38 м.
Битрейт : 7281 Кбит/сек
Ширина : 1280 пикселей
Высота : 534 пикселя
Соотношение сторон : 2,40:1
Режим частоты кадров : Постоянный
Частота кадров : 23,976 кадра/сек
Цветовое пространство : YUV
Субдискретизация насыщенности : 4:2:0
Битовая глубина : 8 бит
Тип развёртки : Прогрессивная
Бит/(Пиксели*Кадры) : 0.444
Размер потока : 5,03 Гбайт (80%)
Заголовок : Release Group СПАМ
Библиотека кодирования : x264 core 135 r2345 f0c1c53
Настройки программы : cabac=1 / ref=12 / deblock=1:-3:-3 / analyse=0x3:0x133 / me=tesa / subme=11 / psy=1 / psy_rd=1.05:0.00 / mixed_ref=1 / me_range=16 / chroma_me=1 / trellis=2 / 8x8dct=1 / cqm=0 / deadzone=21,11 / fast_pskip=0 / chroma_qp_offset=-2 / threads=12 / lookahead_threads=2 / sliced_threads=0 / nr=0 / decimate=1 / interlaced=0 / bluray_compat=0 / constrained_intra=0 / bframes=9 / b_pyramid=2 / b_adapt=2 / b_bias=0 / direct=3 / weightb=1 / open_gop=0 / weightp=2 / keyint=250 / keyint_min=23 / scenecut=40 / intra_refresh=0 / rc=crf / mbtree=0 / crf=16.3 / qcomp=0.75 / qpmin=0 / qpmax=69 / qpstep=4 / ip_ratio=1.40 / pb_ratio=1.30 / aq=1:0.70
Язык : English
Default : Да
Forced : Нет
Цветовой диапазон : Limited
Коэффициенты матрицы : BT.709
DURATION : 01:38:55.930000000
NUMBER_OF_FRAMES : 142320
NUMBER_OF_BYTES : 5534025707
_STATISTICS_WRITING_APP : mkvmerge v7.8.0 ('River Man') 32bit built on Mar 27 2015 16:18:02
_STATISTICS_WRITING_DATE_UTC : 2015-04-30 17:17:23
_STATISTICS_TAGS : BPS DURATION NUMBER_OF_FRAMES NUMBER_OF_BYTES
Аудио #1
Идентификатор : 2
Формат : AC-3
Формат/Информация : Audio Coding 3
Расширение режима : CM (complete main)
Параметр Endianness формата : Big
Идентификатор кодека : A_AC3
Продолжительность : 1 ч. 38 м.
Вид битрейта : Постоянный
Битрейт : 192 Кбит/сек
Каналы : 2 канала
Расположение каналов : Front: L R
Частота : 48,0 КГц
Битовая глубина : 16 бит
Метод сжатия : С потерями
Размер потока : 136 Мбайт (2%)
Заголовок : online movies
Язык : Russian
Default : Да
Forced : Да
Аудио #2
Идентификатор : 3
Формат : AC-3
Формат/Информация : Audio Coding 3
Расширение режима : CM (complete main)
Параметр Endianness формата : Big
Идентификатор кодека : A_AC3
Продолжительность : 1 ч. 38 м.
Вид битрейта : Постоянный
Битрейт : 640 Кбит/сек
Каналы : 6 каналов
Расположение каналов : Front: L C R, Side: L R, LFE
Частота : 48,0 КГц
Битовая глубина : 16 бит
Метод сжатия : С потерями
Размер потока : 453 Мбайт (7%)
Заголовок : Артём Белоконский, Кристина Истомина
Язык : Russian
Default : Нет
Forced : Нет
Аудио #3
Идентификатор : 4
Формат : AC-3
Формат/Информация : Audio Coding 3
Расширение режима : CM (complete main)
Параметр Endianness формата : Big
Идентификатор кодека : A_AC3
Продолжительность : 1 ч. 38 м.
Вид битрейта : Постоянный
Битрейт : 128 Кбит/сек
Каналы : 2 канала
Расположение каналов : Front: L R
Частота : 48,0 КГц
Битовая глубина : 16 бит
Метод сжатия : С потерями
Размер потока : 90,6 Мбайт (1%)
Заголовок : [D-speaker]
Язык : Russian
Default : Нет
Forced : Нет
Аудио #4
Идентификатор : 5
Формат : AC-3
Формат/Информация : Audio Coding 3
Расширение режима : CM (complete main)
Параметр Endianness формата : Big
Идентификатор кодека : A_AC3
Продолжительность : 1 ч. 38 м.
Вид битрейта : Постоянный
Битрейт : 640 Кбит/сек
Каналы : 6 каналов
Расположение каналов : Front: L C R, Side: L R, LFE
Частота : 48,0 КГц
Битовая глубина : 16 бит
Метод сжатия : С потерями
Размер потока : 453 Мбайт (7%)
Заголовок : АС3 - 640
Язык : English
Default : Нет
Forced : Нет
Текст #1
Идентификатор : 6
Формат : UTF-8
Идентификатор кодека : S_TEXT/UTF8
Идентификатор кодека/Информация : UTF-8 Plain Text
Заголовок : notabenoid
Язык : Russian
Default : Нет
Forced : Нет
Текст #2
Идентификатор : 7
Формат : UTF-8
Идентификатор кодека : S_TEXT/UTF8
Идентификатор кодека/Информация : UTF-8 Plain Text
Язык : English
Default : Нет
Forced : Нет
Меню #1
00:00:00.000 : en:00:00:00.000
00:06:35.186 : en:00:06:35.186
00:16:41.876 : en:00:16:41.876
00:21:49.683 : en:00:21:49.683
00:26:26.376 : en:00:26:26.376
00:36:39.197 : en:00:36:39.197
00:48:11.722 : en:00:48:11.722
00:53:31.834 : en:00:53:31.834
01:02:21.071 : en:01:02:21.071
01:11:40.004 : en:01:11:40.004
01:20:03.507 : en:01:20:03.507
01:26:50.914 : en:01:26:50.914
Меню #2
00:00:00.054 : en:00:00:00.054
Скриншоты [url=http://***/forum/viewtopic.php?t=2860517]все фильмы с Джулианной Мур на трекере[/url]-Рекомендую к [url=http://***/forum/viewtopic.php?t=4226773]прослушиванию[/url] ==>-Пожалуйста, не покидайте раздачу! Спасибо за Ваши комментарии и Ваше "Спасибо"!
Скачать

Скачать торрент!

Как скачивать? · Что такое торрент? · Рейтинг и ограничения

Сайт не распространяет и не хранит электронные версии произведений, а лишь предоставляет доступ к создаваемому пользователями каталогу ссылок на торрент-файлы, которые содержат только списки хеш-сумм

[Профиль] [ЛС]
Показать сообщения:    
Ответить на тему

Текущее время: Сегодня 15:57

Часовой пояс: GMT + 4



Вы не можете начинать темы
Вы не можете отвечать на сообщения
Вы не можете редактировать свои сообщения
Вы не можете удалять свои сообщения
Вы не можете голосовать в опросах
Вы не можете прикреплять файлы к сообщениям
Вы не можете скачивать файлы