Заложница 3 / Taken 3 (Оливье Мегатон / Olivier Megaton) [2014, Франция, боевик, триллер, BDRemux 1080p] [Extended Cut] Dub + AVO (Гаврилов) + Ukr + Sub Rus, Ukr, Eng + Original Eng

Ответить на тему
 
Автор Сообщение

user ®

Стаж: 7 лет 7 месяцев

Сообщений: 20008

Пост Пост: #1 от 04-Май-2015 13:36

[Цитировать]

Заложница 3 / Taken 3 / Extended Cut Страна: Франция
Студия: Canal+, Ciné+, EuropaCorp
Жанр: боевик, триллер
Год выпуска: 2014
Продолжительность: 01:55:18
Перевод 1: Профессиональный (дублированный) Blu-ray EUR
Перевод 2: Авторский (одноголосый закадровый) Гаврилов
Cубтитры: русские, украинские, английские
Оригинальная аудиодорожка: английский
Режиссер: Оливье Мегатон / Olivier Megaton
В ролях: Лиам Нисон, Мэгги Грэйс, Форест Уитакер, Фамке Янссен, Джонни Уэстон, Дюгрей Скотт, Джон Грайз, Лиленд Орсер, Ал Сапиенца, Эндрю Ховард
Описание: Жизнь бывшего правительственного агента Брайана Миллса рушится, когда его обвиняют в убийстве, которого он не совершал. Преследуемый опытным инспектором полиции, Миллс пытается отследить настоящего убийцу…

Тип релиза: BDRemux 1080p
Контейнер: MKV
Видео: AVC, 1920x1080, 27964Kbps, 23.976 fps
Аудио 1: Russian: 48 kHz, DTS, 3/2 (L,C,R,l,r) + LFE ch, ~768.00 kbps avg |Blu-ray EUR|
Аудио 2: Ukrainian: 48 kHz, AC3, 3/2 (L,C,R,l,r) + LFE ch, ~448.00 kbps avg |Blu-ray EUR|
Аудио 3: Russian DTS-HD Master Audio / 3507 kbps / 5.1 / 48 kHz / 24-bit (DTS Core: 5.1 / 48 kHz / 1509 kbps / 24-bit) |Гаврилов|
Аудио 4: English DTS-HD Master Audio / 3647 kbps / 5.1 / 48 kHz / 24-bit (DTS Core: 5.1 / 48 kHz / 1509 kbps / 24-bit) |Original|
Чаптеры: есть

MediaInfo
General
Unique ID : 178483469298190625828550106238769500513 (0x8646AA72855AD494BB9F264460A51161)
Complete name : D:\Taken.3.Extended.2014.1080p.REMUX.BluRay.AVC.DTS.HD.MA.5.1-Talian-.mkv
Format : Matroska
Format version : Version 2
File size : 29.4 GiB
Duration : 1h 55mn
Overall bit rate mode : Variable
Overall bit rate : 36.5 Mbps
Movie name : Taken 3-Talian-
Encoded date : UTC 2015-05-02 08:27:49
Writing application : mkvmerge v5.7.0 ('The Whirlwind') built on Jul 8 2012 20:08:51
Writing library : libebml v1.2.3 + libmatroska v1.3.0
Video
ID : 1
Format : AVC
Format/Info : Advanced Video Codec
Format profile : High@L4.1
Format settings, CABAC : Yes
Format settings, ReFrames : 4 frames
Codec ID : V_MPEG4/ISO/AVC
Duration : 1h 55mn
Bit rate mode : Variable
Bit rate : 31.1 Mbps
Maximum bit rate : 34.0 Mbps
Width : 1 920 pixels
Height : 1 080 pixels
Display aspect ratio : 16:9
Frame rate : 23.976 fps
Color space : YUV
Chroma subsampling : 4:2:0
Bit depth : 8 bits
Scan type : Progressive
Bits/(Pixel*Frame) : 0.625
Stream size : 25.0 GiB (85%)
Title : BDRemux
Language : English
Default : Yes
Forced : No
Audio #1
ID : 2
Format : DTS
Format/Info : Digital Theater Systems
Codec ID : A_DTS
Duration : 1h 55mn
Bit rate mode : Constant
Bit rate : 755 Kbps
Channel(s) : 6 channels
Channel positions : Front: L C R, Side: L R, LFE
Sampling rate : 48.0 KHz
Bit depth : 24 bits
Compression mode : Lossy
Stream size : 622 MiB (2%)
Title : DUB-Blu-ray EUR
Language : Russian
Default : Yes
Forced : No
Audio #2
ID : 3
Format : AC-3
Format/Info : Audio Coding 3
Mode extension : CM (complete main)
Format settings, Endianness : Big
Codec ID : A_AC3
Duration : 1h 55mn
Bit rate mode : Constant
Bit rate : 448 Kbps
Channel(s) : 6 channels
Channel positions : Front: L C R, Side: L R, LFE
Sampling rate : 48.0 KHz
Bit depth : 16 bits
Compression mode : Lossy
Stream size : 369 MiB (1%)
Title : DUB-Blu-ray EUR
Language : Ukrainian
Default : No
Forced : No
Audio #3
ID : 4
Format : DTS
Format/Info : Digital Theater Systems
Format profile : MA / Core
Codec ID : A_DTS
Duration : 1h 55mn
Bit rate mode : Variable
Bit rate : 1 978 Kbps / 1 510 Kbps
Channel(s) : 6 channels
Channel positions : Front: L C R, Side: L R, LFE
Sampling rate : 48.0 KHz
Bit depth : 24 bits
Compression mode : Lossless / Lossy
Title : AVO-Гаврилов
Language : Russian
Default : No
Forced : No
Audio #4
ID : 5
Format : DTS
Format/Info : Digital Theater Systems
Format profile : MA / Core
Codec ID : A_DTS
Duration : 1h 55mn
Bit rate mode : Variable
Bit rate : 1 561 Kbps / 1 510 Kbps
Channel(s) : 6 channels
Channel positions : Front: L C R, Side: L R, LFE
Sampling rate : 48.0 KHz
Bit depth : 24 bits
Compression mode : Lossless / Lossy
Title : Original
Language : English
Default : No
Forced : No
Text #1
ID : 6
Format : UTF-8
Codec ID : S_TEXT/UTF8
Codec ID/Info : UTF-8 Plain Text
Title : Sub-full
Language : Russian
Default : No
Forced : No
Text #2
ID : 7
Format : UTF-8
Codec ID : S_TEXT/UTF8
Codec ID/Info : UTF-8 Plain Text
Title : Sub-full
Language : Ukrainian
Default : No
Forced : No
Text #3
ID : 8
Format : UTF-8
Codec ID : S_TEXT/UTF8
Codec ID/Info : UTF-8 Plain Text
Title : Sub-forced
Language : English
Default : No
Forced : No
Text #4
ID : 9
Format : UTF-8
Codec ID : S_TEXT/UTF8
Codec ID/Info : UTF-8 Plain Text
Title : Sub-full
Language : English
Default : No
Forced : No
Menu
00:00:00.000 : 00:00:00.000
00:04:18.091 : 00:04:18.091
00:10:12.820 : 00:10:12.820
00:13:20.466 : 00:13:20.466
00:15:44.986 : 00:15:44.986
00:18:25.354 : 00:18:25.354
00:23:18.814 : 00:23:18.814
00:25:49.256 : 00:25:49.256
00:27:34.861 : 00:27:34.861
00:30:21.403 : 00:30:21.403
00:33:01.146 : 00:33:01.146
00:36:00.283 : 00:36:00.283
00:38:17.795 : 00:38:17.795
00:43:08.419 : 00:43:08.419
00:46:46.428 : 00:46:46.428
00:50:21.143 : 00:50:21.143
00:55:00.338 : 00:55:00.338
00:59:07.293 : 00:59:07.293
01:02:49.641 : 01:02:49.641
01:05:56.953 : 01:05:56.953
01:07:13.863 : 01:07:13.863
01:09:59.028 : 01:09:59.028
01:14:26.086 : 01:14:26.086
01:18:10.185 : 01:18:10.185
01:22:19.518 : 01:22:19.518
01:25:26.162 : 01:25:26.162
01:29:38.206 : 01:29:38.206
01:33:24.473 : 01:33:24.473
01:37:07.571 : 01:37:07.571
01:40:37.656 : 01:40:37.656
01:46:48.443 : 01:46:48.443
01:49:42.993 : 01:49:42.993
Скриншоты
Скачать

Скачать торрент!

Как скачивать? · Что такое торрент? · Рейтинг и ограничения

Сайт не распространяет и не хранит электронные версии произведений, а лишь предоставляет доступ к создаваемому пользователями каталогу ссылок на торрент-файлы, которые содержат только списки хеш-сумм

[Профиль] [ЛС]
Показать сообщения:    
Ответить на тему

Текущее время: Сегодня 19:42

Часовой пояс: GMT + 4



Вы не можете начинать темы
Вы не можете отвечать на сообщения
Вы не можете редактировать свои сообщения
Вы не можете удалять свои сообщения
Вы не можете голосовать в опросах
Вы не можете прикреплять файлы к сообщениям
Вы не можете скачивать файлы