Чужой среди айсбергов (Андрей Соколов) [2014, мультфильм, WEBRip-AVC]

Ответить на тему
 
Автор Сообщение

user ®

Стаж: 7 лет 7 месяцев

Сообщений: 20008

Пост Пост: #1 от 04-Май-2015 10:30

[Цитировать]

Чужой среди айсбергов
Страна: Россия
Жанр: мультфильм
Продолжительность: 00:13:24
Год выпуска: 2014
Режиссёр: Андрей Соколов
Музыка: Staratelli
Описание: У этого петуха необычная судьба: он вырос в Антарктиде среди пингвинов.
Местами комичная, а местами серьёзная история о становлении характера.
Качество: WEBRip-AVC
Формат: MP4
Видео: 1540 kbps, 1280х720 (16:9), 25.000 fps, AVC (High@L3.1)
Аудио: 192 kbps, 44.1 kHz, 2 channels, AAC (LC)
Субтитры: отсутствуют
Подробные технические данные
General
Complete name : Чужой среди айсбергов (2014).mp4
Format : MPEG-4
Format profile : Base Media / Version 2
Codec ID : mp42
File size : 166 MiB
Duration : 13mn 24s
Overall bit rate mode : Variable
Overall bit rate : 1 734 Kbps
Encoded date : UTC 2014-11-26 08:12:00
Tagged date : UTC 2014-11-26 08:12:00
gsst : 0
gstd : 804501
gssd : BADC29225HH1425125553839759
gshh : r5---sn-n8v7zn7y.googlevideo.com
Video
ID : 1
Format : AVC
Format/Info : Advanced Video Codec
Format profile : High@L3.1
Format settings, CABAC : Yes
Format settings, ReFrames : 1 frame
Format settings, GOP : M=1, N=60
Codec ID : avc1
Codec ID/Info : Advanced Video Coding
Duration : 13mn 24s
Bit rate : 1 540 Kbps
Maximum bit rate : 6 810 Kbps
Width : 1 280 pixels
Height : 720 pixels
Display aspect ratio : 16:9
Frame rate mode : Constant
Frame rate : 25.000 fps
Color space : YUV
Chroma subsampling : 4:2:0
Bit depth : 8 bits
Scan type : Progressive
Bits/(Pixel*Frame) : 0.067
Stream size : 148 MiB (89%)
Tagged date : UTC 2014-11-26 08:12:18
Audio
ID : 2
Format : AAC
Format/Info : Advanced Audio Codec
Format profile : LC
Codec ID : 40
Duration : 13mn 24s
Bit rate mode : Variable
Bit rate : 192 Kbps
Maximum bit rate : 201 Kbps
Channel(s) : 2 channels
Channel positions : Front: L R
Sampling rate : 44.1 KHz
Compression mode : Lossy
Stream size : 18.4 MiB (11%)
Title : IsoMedia File Produced by Google, 5-11-2011
Encoded date : UTC 2014-11-26 08:12:15
Tagged date : UTC 2014-11-26 08:12:18
Скриншоты
Скачать

Скачать торрент!

Как скачивать? · Что такое торрент? · Рейтинг и ограничения

Сайт не распространяет и не хранит электронные версии произведений, а лишь предоставляет доступ к создаваемому пользователями каталогу ссылок на торрент-файлы, которые содержат только списки хеш-сумм

[Профиль] [ЛС]
Показать сообщения:    
Ответить на тему

Текущее время: Сегодня 00:05

Часовой пояс: GMT + 4



Вы не можете начинать темы
Вы не можете отвечать на сообщения
Вы не можете редактировать свои сообщения
Вы не можете удалять свои сообщения
Вы не можете голосовать в опросах
Вы не можете прикреплять файлы к сообщениям
Вы не можете скачивать файлы