Патруль времени / Predestination (Майкл Спириг / Michael Spierig, Питер Спириг / Peter Spierig) [2014, Австралия, фантастика, триллер, BDRip 720p] Dub + MVO + AVO (Гаврилов) + VO (Есарев) + Sub Rus, Eng + Original Eng

Ответить на тему
 
Автор Сообщение

user ®

Стаж: 7 лет 7 месяцев

Сообщений: 20008

Пост Пост: #1 от 04-Май-2015 10:30

[Цитировать]

Патруль времени / Predestination Страна: Австралия
Студия: Blacklab Entertainment, Screen Australia, Screen Queensland, Wolfhound Pictures
Жанр: фантастика, триллер
Год выпуска: 2014
Продолжительность: 01:37:48
Перевод 1: Профессиональный (дублированный) BD RUS
Перевод 2: Любительский (многоголосый закадровый) BaiBaKo
Перевод 3: Авторский (одноголосый закадровый) Гаврилов
Перевод 4: Одноголосый (закадровый) Есарев (без цензуры, цензурный)
Cубтитры: русские, английские
Оригинальная аудиодорожка: английский
Режиссер: Майкл Спириг / Michael Spierig, Питер Спириг / Peter Spierig
В ролях: Итэн Хоук, Сара Снук, Ноа Тейлор, Элиз Джэнсен, Фрея Стэффорд, Кристофер Кирби, Кейт Вульф, Алексис Фернандес, Люсинда Армстронг Холл, Алисия Павлис
Описание: Специальный агент постоянно находится между прошлым и будущим, чтобы обеспечить себе карьеру законника длиною в вечность. В своем последнем задании ему предстоит завербовать в прошлом самого себя и, наконец, задержать преступника, который вновь и вновь ускользает от него в другое время, находясь всегда на шаг впереди него.


Тип релиза: BDRip 720p [NTb]
Контейнер: MKV
Видео: AVC, 1280x534, 5642Kbps, 23.976 fps
Аудио 1: Russian: 48 kHz, AC3, 3/2 (L,C,R,l,r) + LFE ch, ~640.00 kbps avg |BD RUS|
Аудио 2: Russian: 48 kHz, AC3, 3/2 (L,C,R,l,r) + LFE ch, ~640.00 kbps avg |BaiBaKo|
Аудио 3: Russian: 48 kHz, AC3, 3/2 (L,C,R,l,r) + LFE ch, ~640.00 kbps avg |Гаврилов|
Аудио 4: Russian: 48 kHz, AC3, 3/2 (L,C,R,l,r) + LFE ch, ~640.00 kbps avg |Есарев - без цензуры|
Аудио 5: Russian: 48 kHz, AC3, 3/2 (L,C,R,l,r) + LFE ch, ~640.00 kbps avg |Есарев - цензурный|
Аудио 6: English: 48 kHz, AC3, 3/2 (L,C,R,l,r) + LFE ch, ~640.00 kbps |Original|
Чаптеры: есть

Доп.информация
Перевод Дмитрия Есарева доступен благодаря пользователям "Переулка Переводмана": Skazhutin, mihey10, Mr. X, mihaildns, norton.n, ZeDOK, Loki1982, timyrovecTM, Savely
За перевод А. Гаврилова большое спасибо пользователям форума hdtracker:
rydanes; Gross1978; ultrajeka; ZeRoNe; Chistobaev; _MyxAmoP_; karantin66; dunhill200; Luka69; kolibri2; kondratzx; Brown15; Диммон; Tagansky; zeleniydzhan; aladdin; ylnian; hulahup; Pain_70; saenwert
x264 log
x264 [info]: frame I:1508 Avg QP:13.29 size:118512
x264 [info]: frame P:27054 Avg QP:14.48 size: 51768
x264 [info]: frame B:112150 Avg QP:15.79 size: 23021
x264 [info]: consecutive B-frames: 1.7% 1.5% 4.2% 15.7% 16.0% 38.4% 9.6% 10.6% 1.9% 0.5%
encoded 140712 frames, 4.20 fps, 5671.98 kb/s
MediaInfo
General
Unique ID : 219112530403064700238505263268970008363 (0xA4D789D143B2F5699EAEA3A8757A8F2B)
Complete name : D:\Predestination.2014.720p.BluRay.DD5.1.x264-Talian-.mkv
Format : Matroska
Format version : Version 2
File size : 6.50 GiB
Duration : 1h 38mn
Overall bit rate : 9 471 Kbps
Movie name : Predestination-Talian-
Encoded date : UTC 2015-04-30 13:57:29
Writing application : mkvmerge v5.7.0 ('The Whirlwind') built on Jul 8 2012 20:08:51
Writing library : libebml v1.2.3 + libmatroska v1.3.0
Video
ID : 1
Format : AVC
Format/Info : Advanced Video Codec
Format profile : High@L4.1
Format settings, CABAC : Yes
Format settings, ReFrames : 12 frames
Codec ID : V_MPEG4/ISO/AVC
Duration : 1h 38mn
Bit rate : 5 442 Kbps
Width : 1 280 pixels
Height : 534 pixels
Display aspect ratio : 2.40:1
Frame rate : 23.976 fps
Color space : YUV
Chroma subsampling : 4:2:0
Bit depth : 8 bits
Scan type : Progressive
Bits/(Pixel*Frame) : 0.332
Stream size : 3.74 GiB (57%)
Title : NTb
Writing library : x264 core 142 r2479 dd79a61
Encoding settings : cabac=1 / ref=12 / deblock=1:-3:-3 / analyse=0x3:0x133 / me=umh / subme=10 / psy=1 / psy_rd=0.98:0.00 / mixed_ref=1 / me_range=48 / chroma_me=1 / trellis=2 / 8x8dct=1 / cqm=0 / deadzone=21,11 / fast_pskip=1 / chroma_qp_offset=-2 / threads=6 / lookahead_threads=1 / sliced_threads=0 / nr=0 / decimate=1 / interlaced=0 / bluray_compat=0 / constrained_intra=0 / bframes=9 / b_pyramid=2 / b_adapt=2 / b_bias=0 / direct=3 / weightb=1 / open_gop=0 / weightp=2 / keyint=250 / keyint_min=23 / scenecut=40 / intra_refresh=0 / rc_lookahead=150 / rc=crf / mbtree=0 / crf=16.0 / qcomp=0.75 / qpmin=0 / qpmax=69 / qpstep=4 / vbv_maxrate=50000 / vbv_bufsize=62500 / crf_max=0.0 / nal_hrd=none / filler=0 / ip_ratio=1.30 / pb_ratio=1.20 / aq=1:0.75
Language : English
Default : Yes
Forced : No
Audio #1
ID : 2
Format : AC-3
Format/Info : Audio Coding 3
Mode extension : CM (complete main)
Format settings, Endianness : Big
Codec ID : A_AC3
Duration : 1h 38mn
Bit rate mode : Constant
Bit rate : 640 Kbps
Channel(s) : 6 channels
Channel positions : Front: L C R, Side: L R, LFE
Sampling rate : 48.0 KHz
Bit depth : 16 bits
Compression mode : Lossy
Stream size : 450 MiB (7%)
Title : DUB-BD RUS
Language : Russian
Default : Yes
Forced : No
Audio #2
ID : 3
Format : AC-3
Format/Info : Audio Coding 3
Mode extension : CM (complete main)
Format settings, Endianness : Big
Codec ID : A_AC3
Duration : 1h 38mn
Bit rate mode : Constant
Bit rate : 640 Kbps
Channel(s) : 6 channels
Channel positions : Front: L C R, Side: L R, LFE
Sampling rate : 48.0 KHz
Bit depth : 16 bits
Compression mode : Lossy
Stream size : 450 MiB (7%)
Title : MVO-BaiBaKo
Language : Russian
Default : No
Forced : No
Audio #3
ID : 4
Format : AC-3
Format/Info : Audio Coding 3
Mode extension : CM (complete main)
Format settings, Endianness : Big
Codec ID : A_AC3
Duration : 1h 38mn
Bit rate mode : Constant
Bit rate : 640 Kbps
Channel(s) : 6 channels
Channel positions : Front: L C R, Side: L R, LFE
Sampling rate : 48.0 KHz
Bit depth : 16 bits
Compression mode : Lossy
Stream size : 450 MiB (7%)
Title : AVO-Гаврилов
Language : Russian
Default : No
Forced : No
Audio #4
ID : 5
Format : AC-3
Format/Info : Audio Coding 3
Mode extension : CM (complete main)
Format settings, Endianness : Big
Codec ID : A_AC3
Duration : 1h 38mn
Bit rate mode : Constant
Bit rate : 640 Kbps
Channel(s) : 6 channels
Channel positions : Front: L C R, Side: L R, LFE
Sampling rate : 48.0 KHz
Bit depth : 16 bits
Compression mode : Lossy
Stream size : 450 MiB (7%)
Title : VO-Есарев - без цензуры
Language : Russian
Default : No
Forced : No
Audio #5
ID : 6
Format : AC-3
Format/Info : Audio Coding 3
Mode extension : CM (complete main)
Format settings, Endianness : Big
Codec ID : A_AC3
Duration : 1h 38mn
Bit rate mode : Constant
Bit rate : 640 Kbps
Channel(s) : 6 channels
Channel positions : Front: L C R, Side: L R, LFE
Sampling rate : 48.0 KHz
Bit depth : 16 bits
Compression mode : Lossy
Stream size : 450 MiB (7%)
Title : VO-Есарев - цензурный
Language : Russian
Default : No
Forced : No
Audio #6
ID : 7
Format : AC-3
Format/Info : Audio Coding 3
Mode extension : CM (complete main)
Format settings, Endianness : Big
Codec ID : A_AC3
Duration : 1h 38mn
Bit rate mode : Constant
Bit rate : 640 Kbps
Channel(s) : 6 channels
Channel positions : Front: L C R, Side: L R, LFE
Sampling rate : 48.0 KHz
Bit depth : 16 bits
Compression mode : Lossy
Stream size : 450 MiB (7%)
Title : Original
Language : English
Default : No
Forced : No
Text #1
ID : 8
Format : UTF-8
Codec ID : S_TEXT/UTF8
Codec ID/Info : UTF-8 Plain Text
Title : Sub-full
Language : Russian
Default : No
Forced : No
Text #2
ID : 9
Format : UTF-8
Codec ID : S_TEXT/UTF8
Codec ID/Info : UTF-8 Plain Text
Title : Sub-full
Language : English
Default : No
Forced : No
Text #3
ID : 10
Format : UTF-8
Codec ID : S_TEXT/UTF8
Codec ID/Info : UTF-8 Plain Text
Title : Sub-SDH
Language : English
Default : No
Forced : No
Menu
00:00:00.000 : en:00:00:00.000
00:06:04.656 : en:00:06:04.656
00:08:31.678 : en:00:08:31.678
00:15:55.538 : en:00:15:55.538
00:22:33.602 : en:00:22:33.602
00:28:53.273 : en:00:28:53.273
00:34:25.689 : en:00:34:25.689
00:41:07.632 : en:00:41:07.632
00:47:33.059 : en:00:47:33.059
00:52:05.372 : en:00:52:05.372
00:58:46.356 : en:00:58:46.356
01:05:18.832 : en:01:05:18.832
01:12:06.656 : en:01:12:06.656
01:17:43.117 : en:01:17:43.117
01:22:50.382 : en:01:22:50.382
01:29:37.956 : en:01:29:37.956
Скриншоты
Source vs Encode


Скачать

Скачать торрент!

Как скачивать? · Что такое торрент? · Рейтинг и ограничения

Сайт не распространяет и не хранит электронные версии произведений, а лишь предоставляет доступ к создаваемому пользователями каталогу ссылок на торрент-файлы, которые содержат только списки хеш-сумм

[Профиль] [ЛС]
Показать сообщения:    
Ответить на тему

Текущее время: Сегодня 06:25

Часовой пояс: GMT + 4



Вы не можете начинать темы
Вы не можете отвечать на сообщения
Вы не можете редактировать свои сообщения
Вы не можете удалять свои сообщения
Вы не можете голосовать в опросах
Вы не можете прикреплять файлы к сообщениям
Вы не можете скачивать файлы