Том и Вайт уделывают Америку / Friendship! (Маркус Голлер / Markus Goller) [2010, Германия, США, драма, мелодрама, комедия, BDRip 720p] MVO (R5) + MVO (1 канал) + Sub Eng + Original Ger

Ответить на тему
 
Автор Сообщение

user ®

Стаж: 7 лет 7 месяцев

Сообщений: 20008

Пост Пост: #1 от 04-Май-2015 10:30

[Цитировать]

Том и Вайт уделывают Америку / Friendship!- Страна: Германия, США
Студия: Mr. Brown Entertainment, Seven Pictures, Wiedemann & Berg Filmproduktion
Жанр: драма, мелодрама, комедия
Год выпуска: 2010
Продолжительность: 01:48:45
Перевод 1: Профессиональный (многоголосый закадровый) (R5)
Перевод 2: Профессиональный (многоголосый закадровый) (1 канал)
Cубтитры: английские
Оригинальная аудиодорожка: немецкая
Режиссер: Маркус Голлер / Markus Goller
В ролях: Маттиас Швайгхефер, Фридрих Мюке, Кимберли Дж. Браун, Алиция Бахледа-Цуруш, Камерон Гудман, Тодд Стэшвик, Натали Гал, Крис Браунинг, Кевин О. Ранкин, Кейт Горни
Описание: 1989 год. Германия. Падение Берлинской стены открыло перед двумя друзьями дорогу через океан — в Америку. Ничто и никто не омрачит их веселое путешествие! Даже языковой барьер не станет для них серьезным препятствием. Ведь язык любви, как известно, интернационален. Друзья держат путь в Сан-Франциско. Именно в этом городе они мечтают оторваться по полной. Держись, Америка!

Тип релиза: BDRip 720p [CRiSC]
Контейнер: MKV
Видео: 1280x544 (2,35:1), 23,976 fps, x264 ~7833 kbps avg, 0.469 bit/pixel
Аудио 1: 48 kHz, Digital Theater Systems, 3/2 (L,C,R,l,r) + LFE ch, 1509 kbps (русская, R5)
Аудио 2: 48 kHz, AC3 Dolby Digital, 2 ch, 192 kbps (русская, 1 канал)
Аудио 3: 48 kHz, Digital Theater Systems, 3/2 (L,C,R,l,r) + LFE ch, 1509 kbps (немецкая)
Формат субтитров: softsub (SRT)
Чаптеры: есть

возраст: зрителям, достигшим 16 лет
MediaInfo
ОбщееУникальный идентификатор : 199632760366142862071436952200193389257 (0x962FDF00DE05D6888D8AE23E0DD632C9)Полное имя : \Friendship!.2010.BluRay.720p.DTS.x264.mkvФормат : MatroskaВерсия формата : Version 4 / Version 2Размер файла : 8,56 ГбайтПродолжительность : 1 ч. 48 м.Общий поток : 11,3 Мбит/секДата кодирования : UTC 2015-05-01 16:07:02Программа кодирования : mkvmerge v7.3.0 ('Nouages') 64bit built on Oct 22 2014 18:53:34Библиотека кодирования : libebml v1.3.0 + libmatroska v1.4.1
ВидеоИдентификатор : 1Формат : AVCФормат/Информация : Advanced Video CodecПрофиль формата : High@L4.1Параметр CABAC формата : ДаПараметр ReFrames формата : 12 кадровИдентификатор кодека : V_MPEG4/ISO/AVCПродолжительность : 1 ч. 48 м.Битрейт : 7833 Кбит/секШирина : 1280 пикселейВысота : 544 пикселяСоотношение сторон : 2,35:1Режим частоты кадров : ПостоянныйЧастота кадров : 23,976 кадра/секЦветовое пространство : YUVСубдискретизация насыщенности : 4:2:0Битовая глубина : 8 битТип развёртки : ПрогрессивнаяБит/(Пиксели*Кадры) : 0.469Размер потока : 5,95 Гбайт (70%)Заголовок : Friendship!2010.720p.BluRay.DD5.1.x264-CRiSCБиблиотека кодирования : x264 core 142 r2431+42 c69a006 tMod [8-bit@4:2:0 X86_64]Настройки программы : cabac=1 / ref=12 / deblock=1:-3:-3 / analyse=0x3:0x133 / me=umh / subme=10 / psy=1 / fade_compensate=0.00 / psy_rd=1.00:0.00 / mixed_ref=1 / me_range=24 / chroma_me=1 / trellis=2 / 8x8dct=1 / cqm=0 / deadzone=21,11 / fast_pskip=1 / chroma_qp_offset=-2 / threads=12 / lookahead_threads=2 / sliced_threads=0 / nr=0 / decimate=1 / interlaced=0 / bluray_compat=0 / constrained_intra=0 / fgo=0 / bframes=8 / b_pyramid=2 / b_adapt=2 / b_bias=0 / direct=3 / weightb=1 / open_gop=0 / weightp=2 / keyint=250 / keyint_min=23 / scenecut=40 / intra_refresh=0 / rc_lookahead=60 / rc=crf / mbtree=0 / crf=16.3000 / qcomp=0.65 / qpmin=0:0:0 / qpmax=69:69:69 / qpstep=4 / vbv_maxrate=62500 / vbv_bufsize=78125 / crf_max=0.0 / nal_hrd=none / filler=0 / ip_ratio=1.30 / pb_ratio=1.20 / aq=4:0.85 / aq-sensitivity=10.00 / aq-factor=1.00:1.00:1.00 / aq2=0 / aq3=0Язык : GermanDefault : ДаForced : НетКоэффициенты матрицы : BT.709
Аудио #1Идентификатор : 2Формат : DTSФормат/Информация : Digital Theater SystemsРежим : 16Параметр Endianness формата : BigИдентификатор кодека : A_DTSПродолжительность : 1 ч. 48 м.Вид битрейта : ПостоянныйБитрейт : 1509 Кбит/секКаналы : 6 каналовРасположение каналов : Front: L C R, Side: L R, LFEЧастота : 48,0 КГцБитовая глубина : 24 битМетод сжатия : С потерямиРазмер потока : 1,15 Гбайт (13%)Заголовок : dts 5.1 1509 kbps R5Язык : RussianDefault : ДаForced : Нет
Аудио #2Идентификатор : 3Формат : AC-3Формат/Информация : Audio Coding 3Расширение режима : CM (complete main)Параметр Endianness формата : BigИдентификатор кодека : A_AC3Продолжительность : 1 ч. 48 м.Вид битрейта : ПостоянныйБитрейт : 192 Кбит/секКаналы : 2 каналаРасположение каналов : Front: L RЧастота : 48,0 КГцБитовая глубина : 16 битМетод сжатия : С потерямиРазмер потока : 149 Мбайт (2%)Заголовок : ac3 2.0 192 kbps 1 KanalЯзык : RussianDefault : НетForced : Нет
Аудио #3Идентификатор : 4Формат : DTSФормат/Информация : Digital Theater SystemsРежим : 16Параметр Endianness формата : BigИдентификатор кодека : A_DTSПродолжительность : 1 ч. 48 м.Вид битрейта : ПостоянныйБитрейт : 1509 Кбит/секКаналы : 6 каналовРасположение каналов : Front: L C R, Side: L R, LFEЧастота : 48,0 КГцБитовая глубина : 24 битМетод сжатия : С потерямиРазмер потока : 1,15 Гбайт (13%)Заголовок : dts 5.1 1509 kbps OriginalЯзык : GermanDefault : НетForced : Нет
ТекстИдентификатор : 5Формат : UTF-8Идентификатор кодека : S_TEXT/UTF8Идентификатор кодека/Информация : UTF-8 Plain TextЗаголовок : Sub-fullЯзык : EnglishDefault : НетForced : Нет
Меню00:00:00.000 : :00:00:00.00000:05:50.058 : :00:05:50.05800:13:06.911 : :00:13:06.91100:22:09.119 : :00:22:09.11900:30:03.092 : :00:30:03.09200:38:08.119 : :00:38:08.11900:47:48.740 : :00:47:48.74000:53:10.812 : :00:53:10.81201:01:11.584 : :01:01:11.58401:08:36.403 : :01:08:36.40301:15:14.676 : :01:15:14.67601:21:12.450 : :01:21:12.45001:28:25.216 : :01:28:25.21601:33:05.746 : :01:33:05.74601:39:02.686 : :01:39:02.68601:42:39.194 : :01:42:39.194
Скриншоты
Скачать

Скачать торрент!

Как скачивать? · Что такое торрент? · Рейтинг и ограничения

Сайт не распространяет и не хранит электронные версии произведений, а лишь предоставляет доступ к создаваемому пользователями каталогу ссылок на торрент-файлы, которые содержат только списки хеш-сумм

[Профиль] [ЛС]
Показать сообщения:    
Ответить на тему

Текущее время: Сегодня 01:45

Часовой пояс: GMT + 4



Вы не можете начинать темы
Вы не можете отвечать на сообщения
Вы не можете редактировать свои сообщения
Вы не можете удалять свои сообщения
Вы не можете голосовать в опросах
Вы не можете прикреплять файлы к сообщениям
Вы не можете скачивать файлы