Бомбейское кино / Bombay Talkie (Джеймс Айвори / James Ivory) [1970, Индия, США, Мелодрама, драма, WEBRip] VO (Юлия Семыкина)

Ответить на тему
 
Автор Сообщение

user ®

Стаж: 12 лет

Сообщений: 15092

Пост Пост: #1 от 04-Май-2015 04:18

[Цитировать]

Бомбейское кино / Bombay Talkie
Страна: Индия, США
Жанр: Мелодрама, драма
Год выпуска: 1970
Продолжительность: 01:50:27
Перевод: Одноголосый закадровый Юлия Семыкина
Cубтитры: нет
Режиссер: Джеймс Айвори / James Ivory
В ролях: Шаши Капур, Дженнифер Кендал, Зия Мохиеддин, Апарна Сен, Надира, Хелен, Пинчу Капур, Уша Ивер, Руби Майер
Описание: Американская писательница Люция Лайн приезжает в Бомбей на премьеру фильма, снятого по ее новелле. Драматург Харри приглашает ее на экскурсию, но американка уже положила глаз на восходящую звезду индийского кино Викрама. Правда, Викрам женат, но это не помешает Люции добиваться его взаимности любыми средствами.
Доп. информация:
Перевод: kasmevaade (Спасибо!)
Озвучка: Юлия Семыкина (Спасибо!)
Материалы: larisa_k (Спасибо!)
Сведение аудио: керелис (Спасибо!)
В релизе присутствуют слова и фразы на хинди без перевода и соответственно без озвучки.
Сэмпл: http://multi-up.com/1046614
Качество видео: WEBRip
Формат видео: AVI
Видео: XviD build 50, 688x384 (1.79:1), 23.976 fps, 1635 kbps avg
Аудио: MPEG Layer 3, 44.100 kHz, 2/0 (L,R) ch, 128.00 kbps avg
MediaInfo
General
Complete name : D:\Bombeyskoe.kino.1970.WEBRip.avi
Format : AVI
Format/Info : Audio Video Interleave
File size : 1.37 GiB
Duration : 1h 50mn
Overall bit rate : 1 773 Kbps
Writing application : VirtualDubMod 1.5.10.2 (build 2540/release)
Writing library : VirtualDubMod build 2540/release
Video
ID : 0
Format : MPEG-4 Visual
Format profile : AdvancedSimple@L5
Format settings, BVOP : Yes
Format settings, QPel : No
Format settings, GMC : No warppoints
Format settings, Matrix : Custom
Codec ID : XVID
Codec ID/Hint : XviD
Duration : 1h 50mn
Bit rate : 1 635 Kbps
Width : 688 pixels
Height : 384 pixels
Display aspect ratio : 16/9
Frame rate : 23.976 fps
Resolution : 24 bits
Colorimetry : 4:2:0
Scan type : Progressive
Bits/(Pixel*Frame) : 0.258
Stream size : 1.26 GiB (92%)
Writing library : XviD 1.2.1 (UTC 2008-12-04)
Audio
ID : 1
Format : MPEG Audio
Format version : Version 1
Format profile : Layer 3
Codec ID : 55
Codec ID/Hint : MP3
Duration : 1h 50mn
Bit rate mode : Constant
Bit rate : 128 Kbps
Channel(s) : 2 channels
Sampling rate : 44.1 KHz
Resolution : 16 bits
Stream size : 101 MiB (7%)
Alignment : Split accross interleaves
Interleave, duration : 42 ms (1.00 video frame)
Interleave, preload duration : 500 ms
Writing library : LAME3.98
Encoding settings : -m j -V 4 -q 3 -lowpass 17 -b 128
Скриншоты
Скачать

Скачать торрент! Бомбейское кино / Bombay Talkie (Джеймс Айвори / James Ivory) [1970, Индия, США, Мелодрама, драма, WEBRip] VO (Юлия Семыкина)

Как скачивать? · Что такое торрент? · Рейтинг и ограничения

Сайт не распространяет и не хранит электронные версии произведений, а лишь предоставляет доступ к создаваемому пользователями каталогу ссылок на торрент-файлы, которые содержат только списки хеш-сумм

[Профиль] [ЛС]
Показать сообщения:    
Ответить на тему

Текущее время: Сегодня 17:59

Часовой пояс: GMT + 4



Вы не можете начинать темы
Вы не можете отвечать на сообщения
Вы не можете редактировать свои сообщения
Вы не можете удалять свои сообщения
Вы не можете голосовать в опросах
Вы не можете прикреплять файлы к сообщениям
Вы не можете скачивать файлы