Книга жизни / The Book of Life (Хорхе Р. Гутьеррес / Jorge R. Gutiérrez) [2014 г., мультфильм, фэнтези, мелодрама, комедия, приключения, семейный, BDRip] Dub (Blu-ray EUR) Rus + Original eng

Ответить на тему
 
Автор Сообщение

user ®

Стаж: 13 лет

Сообщений: 15041

Пост Пост: #1 от 03-Май-2015 22:06

[Цитировать]

Книга жизни
The Book of Life
Страна: США
Жанр: мультфильм, фэнтези, мелодрама, комедия, приключения, семейный
Продолжительность: 01:35:24
Год выпуска: 2014-Перевод : Профессиональный (дублированный) Blu-ray EUR
Русские субтитры: есть
Режиссёр: Хорхе Р. Гутьеррес / Jorge R. Gutiérrez-Роли озвучивали: Диего Луна, Зои Салдана, Ченнинг Татум, Рон Перлман, Кристина Эпплгейт, Айс Кьюб, Кейт дель Кастильо, Гектор Элизондо, Дэнни Трехо, Карлос Аласраки-Описание: В мультфильме описывается романтическая история любви на фоне празднования Дня мертвых в Мексике. Духи Ла Муэрте и Шибальба посещают городок Сан Анхель в День Мёртвых, где они заключают пари после того как встречают пару мальчишек, Маноло и Хоакина, которые хотят завоевать сердце Марии.-Релиз от: | -Качество: [url=http://***/forum/viewtopic.php?t=4988883]BDRip[/url] (исходник - The.Book.of.Life.2014.BluRay.EUR)
Формат: AVI
Видео: 720x304 (2.35:1), 23.976 fps, XviD 66 ~2 172 kbps avg, 0.41 bit/pixel
Аудио: 48 kHz, AC3 Dolby Digital, 3/2 (L,C,R,l,r) + LFE ch, ~448 kbps avg |Blu-ray EUR|
Аудио: 48 kHz, AC3 Dolby Digital, 3/2 (L,C,R,l,r) + LFE ch, ~448 kbps avg |Original eng|
Субтитры: Russian, English (srt)


MI
General
Complete name : D:\incarcare\rip gata\The.Book.of.Life.2014.[dragomire]_rutracker.org\The.Book.of.Life.2014.[dragomire]_rutracker.org.avi
Format : AVI
Format/Info : Audio Video Interleave
Format profile : OpenDML
File size : 2.06 GiB
Duration : 1h 35mn
Overall bit rate : 3 086 Kbps
Writing application : VirtualDubMod 1.5.10.2 (build 2540/release)
Writing library : VirtualDubMod build 2540/release
Video
ID : 0
Format : MPEG-4 Visual
Format profile : Advanced Simple@L5
Format settings, BVOP : 1
Format settings, QPel : No
Format settings, GMC : No warppoints
Format settings, Matrix : Custom
Codec ID : XVID
Codec ID/Hint : XviD
Duration : 1h 35mn
Bit rate : 2 172 Kbps
Width : 720 pixels
Height : 304 pixels
Display aspect ratio : 2.35:1
Frame rate : 23.976 fps
Color space : YUV
Chroma subsampling : 4:2:0
Bit depth : 8 bits
Scan type : Progressive
Compression mode : Lossy
Bits/(Pixel*Frame) : 0.414
Stream size : 1.45 GiB (70%)
Writing library : XviD 66
Audio #1
ID : 1
Format : AC-3
Format/Info : Audio Coding 3
Mode extension : CM (complete main)
Format settings, Endianness : Big
Codec ID : 2000
Duration : 1h 35mn
Bit rate mode : Constant
Bit rate : 448 Kbps
Channel(s) : 6 channels
Channel positions : Front: L C R, Side: L R, LFE
Sampling rate : 48.0 KHz
Compression mode : Lossy
Stream size : 306 MiB (15%)
Alignment : Split accross interleaves
Interleave, duration : 42 ms (1.00 video frame)
Interleave, preload duratio : 500 ms
Audio #2
ID : 2
Format : AC-3
Format/Info : Audio Coding 3
Mode extension : CM (complete main)
Format settings, Endianness : Big
Codec ID : 2000
Duration : 1h 35mn
Bit rate mode : Constant
Bit rate : 448 Kbps
Channel(s) : 6 channels
Channel positions : Front: L C R, Side: L R, LFE
Sampling rate : 48.0 KHz
Compression mode : Lossy
Stream size : 306 MiB (15%)
Alignment : Split accross interleaves
Interleave, duration : 42 ms (1.00 video frame)
Interleave, preload duratio : 500 ms
Скриншоты Сравнение
[url=http://***/forum/viewtopic.php?t=4976068]http://***/forum/viewtopic.php?t=4976068[/url]
http://screenshotcomparison.com/comparison/125183/picture:0
Скачать

Скачать торрент! Книга жизни / The Book of Life (Хорхе Р. Гутьеррес / Jorge R. Gutiérrez) [2014 г., мультфильм, фэнтези, мелодрама, комедия, приключения, семейный, BDRip] Dub (Blu-ray EUR) Rus + Original eng

Как скачивать? · Что такое торрент? · Рейтинг и ограничения

Сайт не распространяет и не хранит электронные версии произведений, а лишь предоставляет доступ к создаваемому пользователями каталогу ссылок на торрент-файлы, которые содержат только списки хеш-сумм

[Профиль] [ЛС]
Показать сообщения:    
Ответить на тему

Текущее время: Сегодня 12:14

Часовой пояс: GMT + 4



Вы не можете начинать темы
Вы не можете отвечать на сообщения
Вы не можете редактировать свои сообщения
Вы не можете удалять свои сообщения
Вы не можете голосовать в опросах
Вы не можете прикреплять файлы к сообщениям
Вы не можете скачивать файлы