Стерва для чемпиона (Сергей Гинзбург) [2010, комедия, HDTVRip]

Ответить на тему
 
Автор Сообщение

user ®

Стаж: 7 лет 7 месяцев

Сообщений: 20008

Пост Пост: #1 от 03-Май-2015 15:54

[Цитировать]

Стерва для чемпиона Жанр: комедия
Год выпуска: 2010
Продолжительность: 01:39:51
Режиссёр: Сергей Гинзбург
В ролях: Анастасия Цветаева, Андрей Чернышов, Александр Ильин, Александр Пашутин, Константин Мурзенко, Равиль Исянов, Яна Поплавская, Алексей, Дмитриев, Александр Фарбер, Михаил Полицеймако
Описание: Некоторые русские дядюшки, умирая, оставляют завещание своим лондонским племянницам. Так 23-летняя красавица Дженни Вольт получает в наследство крупнейший российский боксерский клуб. А в придачу — контракт на проведение боя Международной Ассоциацией Бокса (WBA). Рисковая девушка готова ввязаться в эту отнюдь не женскую авантюру.
Только вот незадача — владелец конкурирующего клуба Хоркин готов на все, чтобы выманить у нее этот контракт. И первое, что он делает — уводит всю ее команду бойцов. Но Дженни не так-то просто сбить с выбранного пути! У нее в руках оказывается неожиданный козырь: молодой и никому неизвестный боксер Топазов, в котором она видит железную волю к победе и отчаянную решимость добиться успеха. Теперь их задача — как можно быстрее сделать Топазова звездой боксерского ринга. И любой ценой выиграть самый главный в их жизни приз!..
Сэмпл: делается

Качество видео: HDTVRip
Формат видео: AVI
Видео: 720x400 (1.80:1), 25 fps, XviD, ~1896 kbps
Аудио: 48 kHz, AC3 Dolby Digital, 2/0 (L,R) ch, ~192 kbps
MediaInfo
Общее
Полное имя : D:\Стерва для чемпиона.avi
Формат : AVI
Формат/Информация : Audio Video Interleave
Размер файла : 1,46 Гбайт
Продолжительность : 1 ч. 39 м.
Общий поток : 2097 Кбит/сек
Программа кодирования : VirtualDubMod 1.5.10.3 | www.virtualdub-fr.org || (build 2550/release)
Библиотека кодирования : VirtualDubMod build 2550/release
Видео
Идентификатор : 0
Формат : MPEG-4 Visual
Профиль формата : Advanced Simple@L5
Параметр BVOP формата : 1
Параметр QPel формата : Нет
Параметр GMC формата : Без точки перехода
Параметр матрицы формата : Default (MPEG)
Идентификатор кодека : XVID
Идентификатор кодека/Подсказка : XviD
Продолжительность : 1 ч. 39 м.
Битрейт : 1896 Кбит/сек
Ширина : 720 пикселей
Высота : 400 пикселей
Соотношение сторон : 16:9
Частота кадров : 25,000 кадров/сек
Цветовое пространство : YUV
Субдискретизация насыщенности : 4:2:0
Битовая глубина : 8 бит
Тип развёртки : Прогрессивная
Метод сжатия : С потерями
Бит/(Пиксели*Кадры) : 0.263
Размер потока : 1,32 Гбайт (90%)
Библиотека кодирования : XviD 1.2.1 (UTC 2008-12-04)
Аудио
Идентификатор : 1
Формат : AC-3
Формат/Информация : Audio Coding 3
Расширение режима : CM (complete main)
Параметр Endianness формата : Big
Идентификатор кодека : 2000
Продолжительность : 1 ч. 39 м.
Вид битрейта : Постоянный
Битрейт : 192 Кбит/сек
Каналы : 2 канала
Расположение каналов : Front: L R
Частота : 48,0 КГц
Битовая глубина : 16 бит
Метод сжатия : С потерями
Размер потока : 137 Мбайт (9%)
Выравнивание : Разделение по промежуткам
Продолжительность промежутка : 40 мс. (1,00 видеокадр)
Время предзагрузки промежутка : 500 мс.
Скриншот c названием фильма Скриншоты
Скачать

Скачать торрент!

Как скачивать? · Что такое торрент? · Рейтинг и ограничения

Сайт не распространяет и не хранит электронные версии произведений, а лишь предоставляет доступ к создаваемому пользователями каталогу ссылок на торрент-файлы, которые содержат только списки хеш-сумм

[Профиль] [ЛС]
Показать сообщения:    
Ответить на тему

Текущее время: Сегодня 18:12

Часовой пояс: GMT + 4



Вы не можете начинать темы
Вы не можете отвечать на сообщения
Вы не можете редактировать свои сообщения
Вы не можете удалять свои сообщения
Вы не можете голосовать в опросах
Вы не можете прикреплять файлы к сообщениям
Вы не можете скачивать файлы