Космос как предчувствие (Алексей Учитель) [2005, драма, DVDRip-AVC]

Ответить на тему
 
Автор Сообщение

user ®

Стаж: 7 лет 7 месяцев

Сообщений: 20008

Пост Пост: #1 от 02-Май-2015 12:00

[Цитировать]

Космос как предчувствие
Страна: Россия
Жанр: драма
Год выпуска: 2005
Продолжительность: 01:26:29
Субтитры: нет
Режиссёр: Алексей Учитель
В ролях: Евгений Миронов, Ирина Пегова, Елена Лядова, Евгений Цыганов, Дмитрий Муляр, Сергей Качанов, Мария Кузнецова, Елена Галибина, Игорь Шибанов
Описание: 1957 год. Время надежд и искренней веры в то, что светлое будущее непременно наступит. Советский спутник посылает звонкие сигналы, говоря миру – мы здесь, мы шагнем еще дальше и выше. На земле, в маленьком портовом городе, за движением спутника восхищенно следят сияющие глаза Конька и Лары - простодушного ресторанного повара и его подружки-официантки...
Сюжет довольно нелепый, но фильм сделан мастерски. Кино для настоящих гурманов.
Семпл: https://www.sendspace.com/file/5fiu5u
Качество видео: DVDRip-AVC
Формат видео: MKV
Видео: 720х448@768х448 (1.71:1), AVC (H.264), 25 fps, 1964 kbps avg, 0.244 bit/pixel
Аудио: 48 KHz, AC3, 6 ch, 448 Kbps
MediaInfo
Общее
Уникальный идентификатор : 218286456898318430657805392175245335225 (0xA438713FC7DD1CEABC997038E4C49AB9)
Полное имя : D:\КИНО\Космос как предчувствие.mkv
Формат : Matroska
Версия формата : Version 4 / Version 2
Размер файла : 1,46 Гбайт
Продолжительность : 1 ч. 26 м.
Общий поток : 2412 Кбит/сек
Дата кодирования : UTC 2015-05-01 20:31:03
Программа кодирования : mkvmerge v7.2.0 ('On Every Street') 32bit built on Sep 13 2014 15:42:11
Библиотека кодирования : libebml v1.3.0 + libmatroska v1.4.1
_STATISTICS_WRITING_APP : mkvmerge v7.2.0 ('On Every Street') 32bit built on Sep 13 2014 15:42:11
_STATISTICS_WRITING_DATE_UTC : 2015-05-01 20:31:03
_STATISTICS_TAGS : BPS DURATION NUMBER_OF_FRAMES NUMBER_OF_BYTES
DURATION : 01:26:29.536000000
NUMBER_OF_FRAMES : 162173
NUMBER_OF_BYTES : 290614016
Видео
Идентификатор : 1
Формат : AVC
Формат/Информация : Advanced Video Codec
Профиль формата : High@L4.1
Параметр CABAC формата : Да
Параметр ReFrames формата : 16 кадров
Идентификатор кодека : V_MPEG4/ISO/AVC
Продолжительность : 1 ч. 26 м.
Битрейт : 1964 Кбит/сек
Ширина : 720 пикселей
Высота : 448 пикселей
Соотношение сторон : 16:10
Режим частоты кадров : Постоянный
Частота кадров : 25,000 кадров/сек
Цветовое пространство : YUV
Субдискретизация насыщенности : 4:2:0
Битовая глубина : 8 бит
Тип развёртки : Прогрессивная
Бит/(Пиксели*Кадры) : 0.244
Размер потока : 1,16 Гбайт (79%)
Библиотека кодирования : x264 core 146 r2538 121396c
Настройки программы : cabac=1 / ref=16 / deblock=1:-2:-1 / analyse=0x3:0x133 / me=umh / subme=10 / psy=1 / psy_rd=1.00:0.00 / mixed_ref=1 / me_range=32 / chroma_me=1 / trellis=2 / 8x8dct=1 / cqm=0 / deadzone=21,11 / fast_pskip=0 / chroma_qp_offset=-2 / threads=3 / lookahead_threads=1 / sliced_threads=0 / nr=0 / decimate=1 / interlaced=0 / bluray_compat=0 / constrained_intra=0 / bframes=10 / b_pyramid=2 / b_adapt=2 / b_bias=0 / direct=3 / weightb=1 / open_gop=0 / weightp=2 / keyint=250 / keyint_min=25 / scenecut=40 / intra_refresh=0 / rc_lookahead=60 / rc=2pass / mbtree=1 / bitrate=1964 / ratetol=1.0 / qcomp=0.60 / qpmin=10 / qpmax=51 / qpstep=4 / cplxblur=20.0 / qblur=0.5 / vbv_maxrate=50000 / vbv_bufsize=50000 / nal_hrd=none / filler=0 / ip_ratio=1.40 / aq=1:1.00
Default : Да
Forced : Нет
Аудио
Идентификатор : 2
Формат : AC-3
Формат/Информация : Audio Coding 3
Расширение режима : CM (complete main)
Параметр Endianness формата : Big
Идентификатор кодека : A_AC3
Продолжительность : 1 ч. 26 м.
Вид битрейта : Постоянный
Битрейт : 448 Кбит/сек
Каналы : 6 каналов
Расположение каналов : Front: L C R, Side: L R, LFE
Частота : 48,0 КГц
Битовая глубина : 16 бит
Метод сжатия : С потерями
Размер потока : 277 Мбайт (19%)
Default : Да
Forced : Нет
Скриншоты лог
---[Information] ---[Information] [01.05.2015 14:16:01] avs [info]: 720x448p 11249:11250 @ 25/1 fps (cfr)
---[Information] [02.05.2015 0:55:21] avs [info]: 720x448p 5999:5625 @ 25/1 fps (cfr)
---[Information] [02.05.2015 0:55:21] x264 [info]: using SAR=5999/5625
---[Information] [02.05.2015 0:55:21] x264 [info]: using cpu capabilities: MMX2 SSE2Fast LZCNT
---[Information] [02.05.2015 0:55:21] x264 [info]: profile High, level 4.1
---[Information] [02.05.2015 9:44:11] x264 [info]: frame I:576 Avg QP:18.78 size: 28996
---[Information] [02.05.2015 9:44:11] x264 [info]: frame P:27842 Avg QP:21.31 size: 16117
---[Information] [02.05.2015 9:44:11] x264 [info]: frame B:101321 Avg QP:22.57 size: 7965
---[Information] [02.05.2015 9:44:11] x264 [info]: consecutive B-frames: 2.6% 2.5% 8.8% 9.9% 8.1% 61.1% 3.4% 0.7% 1.8% 0.7% 0.6%
---[Information] [02.05.2015 9:44:11] x264 [info]: mb I I16..4: 4.4% 91.5% 4.1%
---[Information] [02.05.2015 9:44:11] x264 [info]: mb P I16..4: 1.1% 24.1% 0.7% P16..4: 36.7% 19.0% 10.9% 0.2% 0.0% skip: 7.3%
---[Information] [02.05.2015 9:44:11] x264 [info]: mb B I16..4: 0.1% 4.6% 0.1% B16..8: 41.3% 14.6% 3.4% direct: 8.2% skip:27.7% L0:44.4% L1:38.8% BI:16.8%
---[Information] [02.05.2015 9:44:11] x264 [info]: 8x8 transform intra:94.4% inter:76.0%
---[Information] [02.05.2015 9:44:11] x264 [info]: direct mvs spatial:95.7% temporal:4.3%
---[Information] [02.05.2015 9:44:11] x264 [info]: coded y,uvDC,uvAC intra: 90.1% 64.1% 16.6% inter: 40.8% 22.8% 0.7%
---[Information] [02.05.2015 9:44:11] x264 [info]: i16 v,h,dc,p: 32% 17% 10% 41%
---[Information] [02.05.2015 9:44:11] x264 [info]: i8 v,h,dc,ddl,ddr,vr,hd,vl,hu: 10% 9% 17% 9% 11% 11% 11% 11% 12%
---[Information] [02.05.2015 9:44:11] x264 [info]: i4 v,h,dc,ddl,ddr,vr,hd,vl,hu: 12% 9% 5% 8% 14% 16% 14% 11% 11%
---[Information] [02.05.2015 9:44:11] x264 [info]: i8c dc,h,v,p: 38% 29% 21% 12%
---[Information] [02.05.2015 9:44:11] x264 [info]: Weighted P-Frames: Y:7.3% UV:2.7%
---[Information] [02.05.2015 9:44:11] x264 [info]: ref P L0: 34.7% 9.8% 16.9% 6.8% 6.3% 4.4% 4.4% 2.4% 2.5% 2.0% 2.1% 1.7% 1.8% 1.5% 1.6% 1.1%
---[Information] [02.05.2015 9:44:11] x264 [info]: ref B L0: 65.5% 12.2% 5.9% 3.4% 2.6% 2.2% 1.9% 1.2% 1.1% 1.0% 0.9% 0.8% 0.8% 0.5% 0.2%
---[Information] [02.05.2015 9:44:11] x264 [info]: ref B L1: 92.0% 8.0%
---[Information] [02.05.2015 9:44:11] x264 [info]: kb/s:1961.61
---[Information] [02.05.2015 9:44:11] encoded 129739 frames, 4.09 fps, 1961.61 kb/s
сравнения
В рипе [url=http://***/forum/viewtopic.php?t=1005873]http://***/forum/viewtopic.php?t=1005873[/url] не обрезан леттербокс

Причем аспект кривой, 1,25:1 вместо 4:3
Скачать

Скачать торрент!

Как скачивать? · Что такое торрент? · Рейтинг и ограничения

Сайт не распространяет и не хранит электронные версии произведений, а лишь предоставляет доступ к создаваемому пользователями каталогу ссылок на торрент-файлы, которые содержат только списки хеш-сумм

[Профиль] [ЛС]
Показать сообщения:    
Ответить на тему

Текущее время: Сегодня 10:49

Часовой пояс: GMT + 4



Вы не можете начинать темы
Вы не можете отвечать на сообщения
Вы не можете редактировать свои сообщения
Вы не можете удалять свои сообщения
Вы не можете голосовать в опросах
Вы не можете прикреплять файлы к сообщениям
Вы не можете скачивать файлы