Герцог Бургундии / The Duke of Burgundy (Питер Стриклэнд / Peter Strickland) [2014, Великобритания, драма, психологическая драма, БДСМ, BDRip 720p] + Sub Rus + Original Eng

Ответить на тему
 
Автор Сообщение

user ®

Стаж: 7 лет 7 месяцев

Сообщений: 20008

Пост Пост: #1 от 02-Май-2015 02:45

[Цитировать]

Герцог Бургундии / The Duke of Burgundy
Страна: Великобритания
Жанр: драма, психологическая драма, БДСМ
Год выпуска: 2014
Продолжительность: 01:44:24
Перевод: Субтитры (Skuf)
Cубтитры: русские
Оригинальная аудиодорожка: английский
Режиссер: Питер Стриклэнд / Peter Strickland
В ролях: Сидсе Бабетт Кнудсен, Кьяра Д’Анна, Моника Свинн, Евгения Карузо, Фатма Мохамед, Ката Барч
Описание: Женщина, которая изучает бабочек и мотыльков, решает испытать терпимость своей любовницы
Сэмпл: http://multi-up.com/1046050
Тип релиза: BDRip 720p
Контейнер: MKV
Видео: x264, 1280x544 (2.35:1), 23.976 fps, 5 224 Kbps
Аудио: Английский DTS 5.1 48.0 KHz 768 Kbps
Формат субтитров: softsub (SRT)
MediaInfo
General
Unique ID : 201789607929153946340235454475138693924 (0x97CF43CC6728DA0688C2BB3EDC7AFB24)
Complete name : C:\Users\оро\Videos\The.Duke.of.Burgundy.2014.mkv
Format : Matroska
Format version : Version 4 / Version 2
File size : 4.37 GiB
Duration : 1h 44mn
Overall bit rate : 5 993 Kbps
Encoded date : UTC 2015-04-28 20:31:49
Writing application : mkvmerge v7.7.0 ('Six Voices') 64bit built on Feb 28 2015 23:39:33
Writing library : libebml v1.3.1 + libmatroska v1.4.2
DURATION : 01:41:24.082000000
NUMBER_OF_FRAMES : 576
NUMBER_OF_BYTES : 29901
_STATISTICS_WRITING_APP : mkvmerge v7.7.0 ('Six Voices') 64bit built on Feb 28 2015 23:39:33
_STATISTICS_WRITING_DATE_UTC : 2015-04-28 20:31:49
_STATISTICS_TAGS : BPS DURATION NUMBER_OF_FRAMES NUMBER_OF_BYTES
Video
ID : 1
Format : AVC
Format/Info : Advanced Video Codec
Format profile : High@L4.1
Format settings, CABAC : Yes
Format settings, ReFrames : 5 frames
Codec ID : V_MPEG4/ISO/AVC
Duration : 1h 44mn
Bit rate : 5 224 Kbps
Width : 1 280 pixels
Height : 544 pixels
Display aspect ratio : 2.35:1
Frame rate mode : Constant
Frame rate : 24.000 fps
Color space : YUV
Chroma subsampling : 4:2:0
Bit depth : 8 bits
Scan type : Progressive
Bits/(Pixel*Frame) : 0.313
Stream size : 3.72 GiB (85%)
Writing library : x264 core 146 r2538 121396c
Encoding settings : cabac=1 / ref=5 / deblock=1:-3:-3 / analyse=0x3:0x113 / me=umh / subme=8 / psy=1 / psy_rd=1.00:0.00 / mixed_ref=1 / me_range=16 / chroma_me=1 / trellis=1 / 8x8dct=1 / cqm=0 / deadzone=21,11 / fast_pskip=1 / chroma_qp_offset=-2 / threads=6 / lookahead_threads=1 / sliced_threads=0 / nr=0 / decimate=1 / interlaced=0 / bluray_compat=0 / constrained_intra=0 / bframes=3 / b_pyramid=2 / b_adapt=2 / b_bias=0 / direct=3 / weightb=1 / open_gop=0 / weightp=2 / keyint=240 / keyint_min=24 / scenecut=40 / intra_refresh=0 / rc_lookahead=50 / rc=2pass / mbtree=1 / bitrate=5224 / ratetol=1.0 / qcomp=0.60 / qpmin=0 / qpmax=69 / qpstep=4 / cplxblur=20.0 / qblur=0.5 / ip_ratio=1.40 / aq=1:1.00
Language : English
Default : Yes
Forced : No
DURATION : 01:44:24.876000000
NUMBER_OF_FRAMES : 150357
NUMBER_OF_BYTES : 4090101464
_STATISTICS_WRITING_APP : mkvmerge v7.7.0 ('Six Voices') 64bit built on Feb 28 2015 23:39:33
_STATISTICS_WRITING_DATE_UTC : 2015-04-28 20:31:49
_STATISTICS_TAGS : BPS DURATION NUMBER_OF_FRAMES NUMBER_OF_BYTES
Audio
ID : 2
Format : DTS
Format/Info : Digital Theater Systems
Mode : 16
Format settings, Endianness : Big
Codec ID : A_DTS
Duration : 1h 44mn
Bit rate mode : Constant
Bit rate : 768 Kbps
Channel(s) : 6 channels
Channel positions : Front: L C R, Side: L R, LFE
Sampling rate : 48.0 KHz
Bit depth : 24 bits
Compression mode : Lossy
Stream size : 574 MiB (13%)
Language : English
Default : Yes
Forced : No
Text
ID : 3
Format : UTF-8
Codec ID : S_TEXT/UTF8
Codec ID/Info : UTF-8 Plain Text
Default : Yes
Forced : No
Menu
00:00:00.000 : en:00:00:00.000
00:08:02.875 : en:00:08:02.875
00:16:44.750 : en:00:16:44.750
00:25:07.167 : en:00:25:07.167
00:35:46.667 : en:00:35:46.667
00:42:01.958 : en:00:42:01.958
00:52:14.125 : en:00:52:14.125
01:00:37.583 : en:01:00:37.583
01:08:49.458 : en:01:08:49.458
01:17:34.333 : en:01:17:34.333
01:27:39.125 : en:01:27:39.125
01:40:38.417 : en:01:40:38.417
Скриншоты
Скачать

Скачать торрент!

Как скачивать? · Что такое торрент? · Рейтинг и ограничения

Сайт не распространяет и не хранит электронные версии произведений, а лишь предоставляет доступ к создаваемому пользователями каталогу ссылок на торрент-файлы, которые содержат только списки хеш-сумм

[Профиль] [ЛС]
Показать сообщения:    
Ответить на тему

Текущее время: Сегодня 12:36

Часовой пояс: GMT + 4



Вы не можете начинать темы
Вы не можете отвечать на сообщения
Вы не можете редактировать свои сообщения
Вы не можете удалять свои сообщения
Вы не можете голосовать в опросах
Вы не можете прикреплять файлы к сообщениям
Вы не можете скачивать файлы