Кто прав, кто виноват / Right Yaaa Wrong (Нирадж Патхак / Neeraj Pathak) [2010, Индия, Триллер, драма, криминал, DVDRip] MVO (Red Media) + Original

Ответить на тему
 
Автор Сообщение

user ®

Стаж: 12 лет

Сообщений: 15092

Пост Пост: #1 от 01-Май-2015 23:39

[Цитировать]

Кто прав, кто виноват / Right Yaaa Wrong
Страна: Индия
Жанр: Триллер, драма, криминал
Год выпуска: 2010
Продолжительность: 02:04:55
Перевод: Профессиональный (многоголосый закадровый) Red Media
Cубтитры: нет
Оригинальная аудиодорожка: хинди
Режиссер: Нирадж Патхак / Neeraj Pathak
В ролях: Санни Деол, Ирфан Кхан, Иша Коппикар, Конкона Сен Шарма, Санджай Сингх, Дипал Шау, Ариян Ваид, Ашок Самарт, Али Хажи, Парикшит Сахни
Описание: Аджай, инспектор из уголовного департамента полиции тяжело ранен в перестрелке и прикован к инвалидному креслу. Он просит свою жену Аншиту помочь ему уйти из жизни, предварительно застраховав свою жизнь на 50 млн. рупий Она вроде бы согласна, так как у неё любовный роман с Санджу, сводным братом мужа, который недавно вернулся из США и обещает ей райскую жизнь в этой стране. Однако события развиваются по совершенно другому сценарию. Неожиданно погибают Аншита и Санджу...
Доп. информация: Синхронизация звука: Vik555 (Спасибо!)
Сэмпл: http://multi-up.com/1046369
Качество видео: DVDRip
Формат видео: AVI
Видео: XviD build 50, 688x288 (2.39:1), 23.976 fps, 1212 kbps avg
Аудио: Rus AC3 Dolby Digital, 48 kHz, 2/0 (L,R) ch, 192.00 kbps avg
Аудио 2: Hindi AC3 Dolby Digital, 48 kHz, 2/0 (L,R) ch, 192.00 kbps avg
MediaInfo
General
Complete name : D:\Kto.prav.kto.vinovat.2010.DVDRip.avi
Format : AVI
Format/Info : Audio Video Interleave
File size : 1.41 GiB
Duration : 2h 4mn
Overall bit rate : 1 611 Kbps
Writing application : VirtualDubMod 1.5.10.2 (build 2540/release)
Writing library : VirtualDubMod build 2540/release
Video
ID : 0
Format : MPEG-4 Visual
Format profile : AdvancedSimple@L5
Format settings, BVOP : Yes
Format settings, QPel : No
Format settings, GMC : No warppoints
Format settings, Matrix : Default (MPEG)
Codec ID : XVID
Codec ID/Hint : XviD
Duration : 2h 4mn
Bit rate : 1 213 Kbps
Width : 688 pixels
Height : 288 pixels
Display aspect ratio : 2.35
Frame rate : 23.976 fps
Resolution : 24 bits
Colorimetry : 4:2:0
Scan type : Progressive
Bits/(Pixel*Frame) : 0.255
Stream size : 1.06 GiB (75%)
Writing library : XviD 1.2.1 (UTC 2008-12-04)
Audio #1
ID : 1
Format : AC-3
Format/Info : Audio Coding 3
Codec ID : 2000
Duration : 2h 4mn
Bit rate mode : Constant
Bit rate : 192 Kbps
Channel(s) : 2 channels
Channel positions : L R
Sampling rate : 48.0 KHz
Stream size : 172 MiB (12%)
Alignment : Split accross interleaves
Interleave, duration : 42 ms (1.00 video frame)
Interleave, preload duration : 500 ms
Audio #2
ID : 2
Format : AC-3
Format/Info : Audio Coding 3
Codec ID : 2000
Duration : 2h 4mn
Bit rate mode : Constant
Bit rate : 192 Kbps
Channel(s) : 2 channels
Channel positions : L R
Sampling rate : 48.0 KHz
Stream size : 172 MiB (12%)
Alignment : Split accross interleaves
Interleave, duration : 42 ms (1.00 video frame)
Interleave, preload duration : 500 ms
Скриншоты
Скачать

Скачать торрент! Кто прав, кто виноват / Right Yaaa Wrong (Нирадж Патхак / Neeraj Pathak) [2010, Индия, Триллер, драма, криминал, DVDRip] MVO (Red Media) + Original

Как скачивать? · Что такое торрент? · Рейтинг и ограничения

Сайт не распространяет и не хранит электронные версии произведений, а лишь предоставляет доступ к создаваемому пользователями каталогу ссылок на торрент-файлы, которые содержат только списки хеш-сумм

[Профиль] [ЛС]
Показать сообщения:    
Ответить на тему

Текущее время: Сегодня 16:18

Часовой пояс: GMT + 4



Вы не можете начинать темы
Вы не можете отвечать на сообщения
Вы не можете редактировать свои сообщения
Вы не можете удалять свои сообщения
Вы не можете голосовать в опросах
Вы не можете прикреплять файлы к сообщениям
Вы не можете скачивать файлы