Sex, кофе, сигареты (Сергей Ольденбург-Свинцов) [2014, драма, комедия, WEB-DLRip]

Ответить на тему
 
Автор Сообщение

user ®

Стаж: 7 лет 7 месяцев

Сообщений: 20008

Пост Пост: #1 от 01-Май-2015 14:21

[Цитировать]

Sex, кофе, сигареты
«Комедия для взрослых»-
-
-
-
- Жанр: драма, комедия
Год выпуска: 2014
Продолжительность: 01:23:58
Режиссёр: Сергей Ольденбург-Свинцов
В ролях: Анна Чиповская, Антон Шагин, Кирилл Кяро, Роман Виктюк, Анна Старшенбаум, Кирилл Грацинский, Игорь Сергеев, Лидия Федосеева-Шукшина, Александр Баширов, Александр Песков
Описание: Кого только не встретишь в московских ресторанах!
Вам кажется — люди приходят сюда, чтобы насладиться вкусной едой или ароматным кофе с сигаретой? Отнюдь… Они приходят в рестораны, потому что здесь кипит бурная жизнь!
Здесь покупают и продают кофейные плантации, здесь орудуют ловкие карманники и хладнокровные убийцы, здесь пишут диссертации о многообразии сексуальных отношений в мире насекомых…
Здесь в укромных местах возникают мимолетные связи, здесь находят свою единственную любовь или расстаются навсегда.

|Сэмпл| http://multi-up.com/1046333
Качество видео: WEB-DLRip
Формат видео: AVI
Видео: 640x272 (2.35:1), 25 fps, XviD build 73 ~1047 kbps avg, 0.24 bit/pixel
Аудио: 48 kHz, AC3 Dolby Digital, 2/0 (L,R) ch, ~192 kbps
MediaInfo
Формат : AVI
Формат/Информация : Audio Video Interleave
Размер файла : 750 Мбайт
Продолжительность : 1 ч. 23 м.
Общий поток : 1249 Кбит/сек
Программа кодирования : VirtualDubMod 1.5.10.3 | www.virtualdub-fr.org || (build 2550/release)
Библиотека кодирования : VirtualDubMod build 2550/release
Видео
Идентификатор : 0
Формат : MPEG-4 Visual
Профиль формата : Advanced Simple@L5
Параметр BVOP формата : 2
Параметр QPel формата : Нет
Параметр GMC формата : Без точки перехода
Параметр матрицы формата : Выборочная
Идентификатор кодека : XVID
Идентификатор кодека/Подсказка : XviD
Продолжительность : 1 ч. 23 м.
Битрейт : 1048 Кбит/сек
Ширина : 640 пикселей
Высота : 272 пикселя
Соотношение сторон : 2,35:1
Частота кадров : 25,000 кадров/сек
Цветовое пространство : YUV
Субдискретизация насыщенности : 4:2:0
Битовая глубина : 8 бит
Тип развёртки : Прогрессивная
Метод сжатия : С потерями
Бит/(Пиксели*Кадры) : 0.241
Размер потока : 629 Мбайт (84%)
Библиотека кодирования : XviD 73
Аудио
Идентификатор : 1
Формат : AC-3
Формат/Информация : Audio Coding 3
Расширение режима : CM (complete main)
Параметр Endianness формата : Big
Идентификатор кодека : 2000
Продолжительность : 1 ч. 23 м.
Вид битрейта : Постоянный
Битрейт : 192 Кбит/сек
Каналы : 2 канала
Расположение каналов : Front: L R
Частота : 48,0 КГц
Битовая глубина : 16 бит
Метод сжатия : С потерями
Размер потока : 115 Мбайт (15%)
Выравнивание : Разделение по промежуткам
Продолжительность промежутка : 40 мс. (1,00 видеокадр)
Время предзагрузки промежутка : 500 мс.
Скриншоты
Скачать

Скачать торрент!

Как скачивать? · Что такое торрент? · Рейтинг и ограничения

Сайт не распространяет и не хранит электронные версии произведений, а лишь предоставляет доступ к создаваемому пользователями каталогу ссылок на торрент-файлы, которые содержат только списки хеш-сумм

[Профиль] [ЛС]
Показать сообщения:    
Ответить на тему

Текущее время: Сегодня 02:07

Часовой пояс: GMT + 4



Вы не можете начинать темы
Вы не можете отвечать на сообщения
Вы не можете редактировать свои сообщения
Вы не можете удалять свои сообщения
Вы не можете голосовать в опросах
Вы не можете прикреплять файлы к сообщениям
Вы не можете скачивать файлы