Супер бабушка / Super Nani (Индра Кумар / Indra Kumar) [2014, Индия, Мелодрама, комедия, WEB-DLRip] MVO (Zee Tv) + Sub Rus (песни, полные) + Original (hindi)

Ответить на тему
 
Автор Сообщение

user ®

Стаж: 12 лет

Сообщений: 15092

Пост Пост: #1 от 01-Май-2015 11:18

[Цитировать]

Супер бабушка / Super Nani - Страна: Индия
Жанр: Мелодрама, комедия
Год выпуска: 2014
Продолжительность: 02:12:59-Перевод: Профессиональный (многоголосый закадровый) Zee Tv
Cубтитры: русские (на песни и полные)
Оригинальная аудиодорожка: Хинди--Режиссер: Индра Кумар / Indra Kumar-В ролях: Рекха, Шарман Джоши, Рандхир Капур, Анупам Кхер, Раджеш Кумар, Швета Кумар, Шрия Нарайан-- Описание: Бхарти Бхатия, чей каждый час жизни посвящен заботам о своей семье, её мелким нуждам и прихотям, включая властного мужа, сына, играющего на фондовом рынке на повышение, сноху, которая стремится стать звездой мыльной оперы и дочь с ультра современными ценностями. Она самоотверженно выполняет свои обязанности, но в награду получает только насмешки и унижения. В семье все относятся к ней как к коврику у порога.
Захватывающая история начинается, когда в Индию неожиданно приезжает внук Манн. Вопреки своим ожиданиям увидеть сильную леди, главу дома, он видит мягкую и дремлющую женщину, которой все помыкают. Это раздражает его, и он решает превратить печальную и скучную жизнь своей бабушки в весёлое катание на американских горках.
-- -- Качество видео: WEB-DLRip
Формат видео: AVI
Видео: 720х304 (2.35:1), 24 fps, XviD, ~1908 kbps avg, 0.36 bit/pixel
Аудио: 48 kHz, AC3, 2 ch, ~192 kbps [Russian]
Аудио 2: 48 kHz, AC3, 2 ch, ~192 kbps [Hindi]
Формат субтитров: SRT (отключаемые, отдельный файл)
Перевод субтитров, редакция: Vasantsena (спасибо)
Синхронизация аудио: василисса (спасибо)
Спасибо за помощь в работе над переводом: Soniya и Алла Свирид (спасибо)
MI
Общее
Полное имя : J:\Super.Babushka.2014.WEB-DLRip.XviD\Super.Babushka.2014.WEB-DLRip.XviD.avi
Формат : AVI
Формат/Информация : Audio Video Interleave
Профиль формата : OpenDML
Размер файла : 2,15 Гбайт
Продолжительность : 2 ч. 12 м.
Общий поток : 2310 Кбит/сек
Программа кодирования : VirtualDubMod 1.5.10.2 (build 2540/release)
Библиотека кодирования : VirtualDubMod build 2540/release
Видео
Идентификатор : 0
Формат : MPEG-4 Visual
Профиль формата : Advanced Simple@L5
Параметр BVOP формата : 1
Параметр QPel формата : Нет
Параметр GMC формата : Без точки перехода
Параметр матрицы формата : Default (MPEG)
Идентификатор кодека : XVID
Идентификатор кодека/Подсказка : XviD
Продолжительность : 2 ч. 12 м.
Битрейт : 1908 Кбит/сек
Ширина : 720 пикселей
Высота : 304 пикселя
Соотношение сторон : 2,35:1
Частота кадров : 24,000 кадра/сек
Цветовое пространство : YUV
Субдискретизация насыщенности : 4:2:0
Битовая глубина : 8 бит
Тип развёртки : Прогрессивная
Метод сжатия : С потерями
Бит/(Пиксели*Кадры) : 0.363
Размер потока : 1,77 Гбайт (83%)
Библиотека кодирования : XviD 1.2.1 (UTC 2008-12-04)
Аудио #1
Идентификатор : 1
Формат : AC-3
Формат/Информация : Audio Coding 3
Расширение режима : CM (complete main)
Параметр Endianness формата : Big
Идентификатор кодека : 2000
Продолжительность : 2 ч. 12 м.
Вид битрейта : Постоянный
Битрейт : 192 Кбит/сек
Каналы : 2 канала
Расположение каналов : Front: L R
Частота : 48,0 КГц
Битовая глубина : 16 бит
Метод сжатия : С потерями
Размер потока : 183 Мбайт (8%)
Выравнивание : Разделение по промежуткам
Продолжительность промежутка : 42 мс. (1,00 видеокадр)
Время предзагрузки промежутка : 500 мс.
Аудио #2
Идентификатор : 2
Формат : AC-3
Формат/Информация : Audio Coding 3
Расширение режима : CM (complete main)
Параметр Endianness формата : Big
Идентификатор кодека : 2000
Продолжительность : 2 ч. 12 м.
Вид битрейта : Постоянный
Битрейт : 192 Кбит/сек
Каналы : 2 канала
Расположение каналов : Front: L R
Частота : 48,0 КГц
Битовая глубина : 16 бит
Метод сжатия : С потерями
Размер потока : 183 Мбайт (8%)
Выравнивание : Разделение по промежуткам
Продолжительность промежутка : 42 мс. (1,00 видеокадр)
Время предзагрузки промежутка : 500 мс.
Общее
Полное имя : J:\Super.Babushka.2014.WEB-DLRip.XviD\Super.Babushka.2014.WEB-DLRip.XviD.songs.srt
Размер файла : 13,3 Кбайт
Общее
Полное имя : J:\Super.Babushka.2014.WEB-DLRip.XviD\Super.Babushka.2014.WEB-DLRip.XviD.srt
Формат : SubRip
Размер файла : 158 Кбайт
Текст
Формат : SubRip
Метод сжатия : Без потерь

-
Скриншот c названием фильма
-
Скриншоты -
Скачать

Скачать торрент! Супер бабушка / Super Nani (Индра Кумар / Indra Kumar) [2014, Индия, Мелодрама, комедия, WEB-DLRip] MVO (Zee Tv) + Sub Rus (песни, полные) + Original (hindi)

Как скачивать? · Что такое торрент? · Рейтинг и ограничения

Сайт не распространяет и не хранит электронные версии произведений, а лишь предоставляет доступ к создаваемому пользователями каталогу ссылок на торрент-файлы, которые содержат только списки хеш-сумм

[Профиль] [ЛС]
Показать сообщения:    
Ответить на тему

Текущее время: Сегодня 16:12

Часовой пояс: GMT + 4



Вы не можете начинать темы
Вы не можете отвечать на сообщения
Вы не можете редактировать свои сообщения
Вы не можете удалять свои сообщения
Вы не можете голосовать в опросах
Вы не можете прикреплять файлы к сообщениям
Вы не можете скачивать файлы