Искупление (Александр Прошкин) [2012, драма, военный, история, BDRip]

Ответить на тему
 
Автор Сообщение

user ®

Стаж: 7 лет 7 месяцев

Сообщений: 20008

Пост Пост: #1 от 01-Май-2015 11:18

[Цитировать]

Искупление- Год выпуска: 2012
Продолжительность: 02:05:22
Жанр: драма, военный, история
Cубтитры: нет-Режиссер: Александр Прошкин
В ролях: Виктория Романенко, Риналь Мухаметов, Андрей Панин, Татьяна Яковенко, Виктор Сухоруков, Сергей Дрейден, Екатерина Волкова, Наталья Морозова, Алишер Умаров, Николай Бутенин
О фильме: Действие фильма разворачивается в канун первого послевоенного Нового 1946 года в разоренном южном городе, где еще совсем недавно жили в мире и согласии представители различных национальностей. Молох войны разделил их на жертв и палачей, породил бесконечное сострадание и нечеловеческую низость. Впрочем, и послевоенная жизнь в разрухе, голоде и нищете обернулась тяжким испытанием. Посудомойка, вдова героя-летчика, ворует из милицейской столовой, чтоб прокормить шестнадцатилетнюю дочь и двух доходяг, которых, по доброте душевной, приютила в своем убогом жилище. Возмущенная дочь доносит на мать и та отправляется искупать грех в тюрьму.
Тема искупления в фильме сложна и непрямолинейна. Молодой лейтенант, летчик, еврей по национальности, возвращается после госпиталя в родной город и узнает, что вся его семья погибла в годы оккупации от рук негодяя соседа. Слепая жажда мести…кровь за кровь…обращены в пустоту — негодяй понес наказание и сгнивает заживо в тюрьме.
Испепеляющее лейтенанта чувство толкает его на самоубийство. И только новое, пробуждающееся в нем чувство к влюбленной в него юной девушке, спасает его от рокового шага.
Релиз:
Автор: sociolog_melvas
Качество: BDRip (источник: / Blu-ray / 1080p)
Формат: AVI
Видео: 720x304 (2.37:1), 24 fps, XviD build 65 ~2037 kbps avg, 0.39 bit/pixel
Аудио: 48 kHz, AC3 Dolby Digital, 3/2 (L,C,R,l,r) + LFE ch, ~448.00 kbps avg
Размер: 2234.77 Mb (1/2 DVD-R)
Скачать: Семпл-

Кадры из фильма
-
Mi
Формат : AVI
Формат/Информация : Audio Video Interleave
Профиль формата : OpenDML
Размер файла : 2,18 Гбайт
Продолжительность : 2 ч. 5 м.
Общий поток : 2492 Кбит/сек
Название фильма : Искупление (2012) BDRip
Режиссёр : sociolog_melvas
Жанр : драма, военный, история
Программа кодирования : VirtualDubMod 1.5.10.2 (build 2540/release)
Примечание : 29.04.2015
Видео
Идентификатор : 0
Формат : MPEG-4 Visual
Профиль формата : Advanced Simple@L5
Параметр BVOP формата : 1
Параметр QPel формата : Нет
Параметр GMC формата : Без точки перехода
Параметр матрицы формата : Выборочная
Идентификатор кодека : XVID
Идентификатор кодека/Подсказка : XviD
Продолжительность : 2 ч. 5 м.
Битрейт : 2032 Кбит/сек
Ширина : 720 пикселей
Высота : 304 пикселя
Соотношение сторон : 2,35:1
Частота кадров : 24,000 кадра/сек
Цветовое пространство : YUV
Субдискретизация насыщенности : 4:2:0
Битовая глубина : 8 бит
Тип развёртки : Прогрессивная
Метод сжатия : С потерями
Бит/(Пиксели*Кадры) : 0.387
Размер потока : 1,78 Гбайт (82%)
Библиотека кодирования : XviD 65
Аудио
Идентификатор : 1
Формат : AC-3
Формат/Информация : Audio Coding 3
Расширение режима : CM (complete main)
Параметр Endianness формата : Big
Идентификатор кодека : 2000
Продолжительность : 2 ч. 5 м.
Вид битрейта : Постоянный
Битрейт : 448 Кбит/сек
Каналы : 6 каналов
Расположение каналов : Front: L C R, Side: L R, LFE
Частота : 48,0 КГц
Битовая глубина : 16 бит
Метод сжатия : С потерями
Размер потока : 402 Мбайт (18%)
Выравнивание : Разделение по промежуткам
Продолжительность промежутка : 42 мс. (1,00 видеокадр)
Время предзагрузки промежутка : 500 мс.
-
Скачать

Скачать торрент!

Как скачивать? · Что такое торрент? · Рейтинг и ограничения

Сайт не распространяет и не хранит электронные версии произведений, а лишь предоставляет доступ к создаваемому пользователями каталогу ссылок на торрент-файлы, которые содержат только списки хеш-сумм

[Профиль] [ЛС]
Показать сообщения:    
Ответить на тему

Текущее время: Сегодня 08:08

Часовой пояс: GMT + 4



Вы не можете начинать темы
Вы не можете отвечать на сообщения
Вы не можете редактировать свои сообщения
Вы не можете удалять свои сообщения
Вы не можете голосовать в опросах
Вы не можете прикреплять файлы к сообщениям
Вы не можете скачивать файлы