Географ глобус пропил (Александр Велединский) [2013 г., драма, BDRip]

Ответить на тему
 
Автор Сообщение

user ®

Стаж: 7 лет 7 месяцев

Сообщений: 20008

Пост Пост: #1 от 30-Апр-2015 07:24

[Цитировать]

-Географ глобус пропил--Год выпуска: 2013Жанр: драмаПродолжительность: 02:04:52--Режиссер:Александр Велединский-В ролях:Константин Хабенский, Елена Лядова, Александр Робак, Евгения Брик (Хиривская), Анна Уколова, Евгения Крегжде, Агриппина Стеклова, Максим Лагашкин, Анфиса Черных, Андрей Прытков-Описание:
Молодой биолог Виктор Служкин от безденежья идет работать учителем географии в обычную пермскую школу. Он борется, а потом и дружит с учениками, конфликтует с завучем, ведет десятиклассников в поход — сплавляться по реке. Еще он пьет с друзьями вино, пытается ужиться с женой и водит в детский сад маленькую дочку. Он просто живет…
--Дополнительная информация:- [url=http://***/forum/viewtopic.php?t=1460328] [/url] [url=http://***/forum/viewtopic.php?t=1677970] [/url]-Сэмпл Рип совместим с бытовыми DVD-проигрывателями.--Качество видео: BDRip [url=http://***/forum/viewtopic.php?t=4644057](Исходник: Blu-ray disc 1080p )[/url]
Формат видео: AVI
Видео: XviD build 73, 720x304 (2.37:1), 24 fps, ~2 044 kbps, 0.389 bit/pixel
Аудио: 48 kHz, AC3 Dolby Digital, 3/2 (L,C,R,l,r) + LFE ch, 448 kbps-Скриншоты

Название MediaInfo
General
Complete name : \Geograf_globus_propil_(2013).BDRip.ac3_[All.Films][RG].avi
Format : AVI
Format/Info : Audio Video Interleave
Format profile : OpenDML
File size : 2.18 GiB
Duration : 2h 4mn
Overall bit rate : 2 504 Kbps
Movie name : Географ глобус пропил (2013) BDRip | [All.Films][RG][***]
Director : | [***]
Writing application : VirtualDubMod 1.5.10.3 | www.virtualdub-fr.org || (build 2550/release)
Copyright : [***]
Video
ID : 0
Format : MPEG-4 Visual
Format profile : Advanced Simple@L5
Format settings, BVOP : 2
Format settings, QPel : No
Format settings, GMC : No warppoints
Format settings, Matrix : Custom
Codec ID : XVID
Codec ID/Hint : XviD
Duration : 2h 4mn
Bit rate : 2 044 Kbps
Width : 720 pixels
Height : 304 pixels
Display aspect ratio : 2.35:1
Frame rate : 24.000 fps
Color space : YUV
Chroma subsampling : 4:2:0
Bit depth : 8 bits
Scan type : Progressive
Compression mode : Lossy
Bits/(Pixel*Frame) : 0.389
Stream size : 1.78 GiB (82%)
Writing library : XviD 73
Audio
ID : 1
Format : AC-3
Format/Info : Audio Coding 3
Mode extension : CM (complete main)
Format settings, Endianness : Big
Codec ID : 2000
Duration : 2h 4mn
Bit rate mode : Constant
Bit rate : 448 Kbps
Channel(s) : 6 channels
Channel positions : Front: L C R, Side: L R, LFE
Sampling rate : 48.0 KHz
Bit depth : 16 bits
Compression mode : Lossy
Stream size : 400 MiB (18%)
Alignment : Split accross interleaves
Interleave, duration : 42 ms (1.00 video frame)
Interleave, preload duratio : 500 ms
Сравнение
[url=http://***/forum/viewtopic.php?t=4818690]http://***/forum/viewtopic.php?t=4818690[/url] 1.45 GB -> http://screenshotcomparison.com/comparison/124572 (выше качество видео, многоканальный звук)
Скачать

Скачать торрент!

Как скачивать? · Что такое торрент? · Рейтинг и ограничения

Сайт не распространяет и не хранит электронные версии произведений, а лишь предоставляет доступ к создаваемому пользователями каталогу ссылок на торрент-файлы, которые содержат только списки хеш-сумм

[Профиль] [ЛС]
Показать сообщения:    
Ответить на тему

Текущее время: Сегодня 02:04

Часовой пояс: GMT + 4



Вы не можете начинать темы
Вы не можете отвечать на сообщения
Вы не можете редактировать свои сообщения
Вы не можете удалять свои сообщения
Вы не можете голосовать в опросах
Вы не можете прикреплять файлы к сообщениям
Вы не можете скачивать файлы