Счастье – это... (Артём Прохоров, Леонид Залесский, Анна Яновская, Татьяна Гулина, Виктория Козельцева, Татьяна Пономарева, Сергей Буров) [2015, Россия, семейный, мелодрама, WEB-DL 720p] + Original Rus

Ответить на тему
 
Автор Сообщение

user ®

Стаж: 7 лет 7 месяцев

Сообщений: 20008

Пост Пост: #1 от 30-Апр-2015 01:12

[Цитировать]

Счастье – это...
Страна: Россия
Жанр: Семейный, мелодрама
Год выпуска: 2015
Продолжительность: 01:38:16
Перевод: Не требуется
Cубтитры: нет
Оригинальная аудиодорожка: русский
Режиссер: Артём Прохоров, Леонид Залесский, Анна Яновская, Татьяна Гулина, Виктория Козельцева, Татьяна Пономарева, Сергей Буров
В ролях: Станислав Дужников, Борис Щербаков, Валерий Гаркалин, Андрей Мерзликин, Егор Бероев, Светлана Иванова, Павел Прилучный, Сергей Пускепалис, Сергей Лавыгин, Алина Бабак.
Описание: В ленте собраны семь историй, каждая из которых имеет добрый финал и по-своему доказывает, что все достойны счастья.
Шесть молодых сценаристов и семь молодых режиссеров при поддержке продюсерской команды Disney и звезд российского кино создали семь трогательных и удивительных историй о том, что такое счастье. Молодые таланты попали в проект «Счастье – это…» благодаря серии творческих конкурсов, основной целью которых стала поддержка начинающих кинематографистов и развитие отечественного кино. Новелла «Пока ждёт велосипед» рассказывает о том, как покупка долгожданного двухколесного друга обернулась для юного героя шансом встретить свою любовь. В новелле «Счастливого пути» у зрителя есть возможность узнать историю двух сестер, которые с годами отдалились друг от друга, и лишь трагическое происшествие заставляет девушек увидеть, что счастье – это возможность любить и ценить родного человека. Новелла «8 марта» посвящена рассказу о том, как процесс выбора имени для новорожденной девочки в семье цирковых артистов превращается в калейдоскоп волнительных событий и волшебных превращений. Сюжет новеллы «#приключенияначинаются» строится на парадоксах цифровой эры и возможностях, которые открывает неожиданная изоляция от электронных средств связи, а в новелле «Последний пункт» главным героем становится успешный бизнесмен, открывающий для себя секрет истинного счастья. Новелла «Двое вместе» построена на столкновении двух абсолютно непохожих людей, а фэнтезийная новелла «Купидон первого разряда» повествует о проблемах ангела, соединяющего людские сердца, который сам становится жертвой неразделенной любви.

Сэмпл: http://multi-up.com/1045967
Тип релиза: WEB-DL 720p
Контейнер: MKV
Видео: MPEG4 Video (H264) 960@1280x536, ~ 3970 kbps, 25 fps, 0.309 bit/pixel
Аудио: AC-3, 6 канала, 48,0 КГц, ~384 kbps iTunes
MediaInfo
Общее
Уникальный идентификатор : 170411556020943202389472281887829098322 (0x803412657C1E63BAADCF0586221B7F52)
Полное имя : D:\Счастье – это\Schaste.eto.2015.720p.WEB-DL.Rus.HDCLUB.mkv
Формат : Matroska
Версия формата : Version 2
Размер файла : 3,05 Гбайт
Продолжительность : 1 ч. 38 м.
Общий поток : 4443 Кбит/сек
Название фильма : Schaste - eto... (2015) - Release for HDCLUB
Дата кодирования : UTC 2015-04-27 22:10:31
Программа кодирования : mkvmerge v3.4.0 ('Rapunzel') built on May 15 2010 09:38:20
Библиотека кодирования : libebml v0.8.0 + libmatroska v0.9.0
Видео
Идентификатор : 1
Формат : AVC
Формат/Информация : Advanced Video Codec
Профиль формата : Main@L3.1
Параметр CABAC формата : Нет
Параметр ReFrames формата : 2 кадра
Идентификатор кодека : V_MPEG4/ISO/AVC
Продолжительность : 1 ч. 38 м.
Битрейт : 3970 Кбит/сек
Ширина : 960 пикселей
Высота : 536 пикселей
Соотношение сторон : 2,40:1
Режим частоты кадров : Постоянный
Частота кадров : 25,000 кадров/сек
Цветовое пространство : YUV
Субдискретизация насыщенности : 4:2:0
Битовая глубина : 8 бит
Тип развёртки : Прогрессивная
Бит/(Пиксели*Кадры) : 0.309
Размер потока : 2,73 Гбайт (89%)
Заголовок : Schaste - eto... (2015) - Release for HDCLUB
Язык : Russian
Default : Да
Forced : Нет
Основные цвета : BT.709
Характеристики трансфера : BT.709
Коэффициенты матрицы : BT.709
colour_range : Limited
Аудио
Идентификатор : 2
Формат : AC-3
Формат/Информация : Audio Coding 3
Расширение режима : CM (complete main)
Параметр Endianness формата : Big
Идентификатор кодека : A_AC3
Продолжительность : 1 ч. 38 м.
Вид битрейта : Постоянный
Битрейт : 384 Кбит/сек
Каналы : 6 каналов
Расположение каналов : Front: L C R, Side: L R, LFE
Частота : 48,0 КГц
Битовая глубина : 16 бит
Метод сжатия : С потерями
Размер потока : 270 Мбайт (9%)
Заголовок : AC3 5.1 @ 384 kbps
Язык : Russian
Default : Да
Forced : Нет
Меню
00:00:00.000 : en:1
00:01:36.000 : en:2
00:13:43.000 : en:3
00:26:23.000 : en:4
00:39:12.000 : en:5
00:53:26.000 : en:6
01:08:43.000 : en:7
01:19:18.000 : en:8
01:33:44.000 : en:9
Скриншоты
Скачать

Скачать торрент!

Как скачивать? · Что такое торрент? · Рейтинг и ограничения

Сайт не распространяет и не хранит электронные версии произведений, а лишь предоставляет доступ к создаваемому пользователями каталогу ссылок на торрент-файлы, которые содержат только списки хеш-сумм

[Профиль] [ЛС]
Показать сообщения:    
Ответить на тему

Текущее время: Сегодня 02:28

Часовой пояс: GMT + 4



Вы не можете начинать темы
Вы не можете отвечать на сообщения
Вы не можете редактировать свои сообщения
Вы не можете удалять свои сообщения
Вы не можете голосовать в опросах
Вы не можете прикреплять файлы к сообщениям
Вы не можете скачивать файлы