Большое приключение Рейнджера / Bark Ranger (Дункан Кристи / Duncan Christie) [2015, Канада, семейный, DVDRip] VO (Levelin)

Ответить на тему
 
Автор Сообщение

user ®

Стаж: 7 лет 7 месяцев

Сообщений: 20008

Пост Пост: #1 от 30-Апр-2015 01:12

[Цитировать]

Большое приключение Рейнджера / Bark Ranger
Страна: Канада
Жанр: семейный, комедия, приключения
Год выпуска: 2015
Продолжительность: 01:21:28
Перевод: Одноголосый закадровый (Levelin)
Cубтитры: нет
Режиссер: Дункан Кристи / Duncan Christie
В ролях: Зои Фрейзер, Люциус Хойо, Марти Адамс, Джейсон Бликер, Ари Коэн
Описание: Рейнджер — жизнерадостный пес, который живет со своими хозяевами в заповеднике. Веселья там особого нет и большую часть времени ему приходится скучать. Но все изменится, когда однажды летом в заповедник сначала приедет девочка Хлоя с мамой, помешанной на здоровом образе жизни, а потом здесь еще обьявятся самые настоящие грабители банков...
Доп. информация: Телевизионный семейный фильм.
Производство Канадской Телерадиовещательной компании CBC
Перевод: М.Васильев
Озвучка: [url=http://***/forum/profile.php?mode=viewprofile&u=5494858]Семен Ващенко[/url]
Релиз подготовлен ВК группой Levelin. Русская озвучка и РГ Translators
IMDB
Сэмпл
Качество видео: DVDRip
Формат видео: AVI
Видео: 1059 Kbps, 640 x 272 (2.35:1) 23 976 fps, MPEG 4
Аудио: 128 Kbps, 48.0 KHz, 2 ch, MPEG Audio
MediaInfo
General
Complete name : C:\Users\master\Downloads\BarkRanger_Levelin.avi
Format : AVI
Format/Info : Audio Video Interleave
File size : 697 MiB
Duration : 1h 21mn
Overall bit rate : 1 197 Kbps
Video
ID : 0
Format : MPEG-4 Visual
Format profile : Advanced Simple@L5
Format settings, BVOP : 2
Format settings, QPel : No
Format settings, GMC : No warppoints
Format settings, Matrix : Default (H.263)
Codec ID : XVID
Codec ID/Hint : XviD
Duration : 1h 21mn
Bit rate : 1 059 Kbps
Width : 640 pixels
Height : 272 pixels
Display aspect ratio : 2.35:1
Frame rate : 23.976 fps
Color space : YUV
Chroma subsampling : 4:2:0
Bit depth : 8 bits
Scan type : Progressive
Compression mode : Lossy
Bits/(Pixel*Frame) : 0.254
Stream size : 617 MiB (89%)
Writing library : XviD 64
Audio
ID : 1
Format : MPEG Audio
Format version : Version 1
Format profile : Layer 3
Codec ID : 55
Codec ID/Hint : MP3
Duration : 1h 21mn
Bit rate mode : Constant
Bit rate : 128 Kbps
Channel(s) : 2 channels
Sampling rate : 48.0 KHz
Compression mode : Lossy
Stream size : 74.6 MiB (11%)
Alignment : Split accross interleaves
Interleave, duration : 42 ms (1.00 video frame)
Interleave, preload duration : 500 ms
Скриншот c названием фильма Скриншоты
Скачать

Скачать торрент!

Как скачивать? · Что такое торрент? · Рейтинг и ограничения

Сайт не распространяет и не хранит электронные версии произведений, а лишь предоставляет доступ к создаваемому пользователями каталогу ссылок на торрент-файлы, которые содержат только списки хеш-сумм

[Профиль] [ЛС]
Показать сообщения:    
Ответить на тему

Текущее время: Сегодня 05:10

Часовой пояс: GMT + 4



Вы не можете начинать темы
Вы не можете отвечать на сообщения
Вы не можете редактировать свои сообщения
Вы не можете удалять свои сообщения
Вы не можете голосовать в опросах
Вы не можете прикреплять файлы к сообщениям
Вы не можете скачивать файлы