Чёрный и белый 2: Рассвет справедливости / Pi Zi Ying Xiong 2 (Юэ-Сун Цай / Yueh-Hsun Tsai ) [2014, Китай, Тайвань, Гонконг, боевик, HDRip] VO

Ответить на тему
 
Автор Сообщение

user ®

Стаж: 13 лет

Сообщений: 15071

Пост Пост: #1 от 29-Апр-2015 09:42

[Цитировать]

Чёрный и белый 2: Рассвет справедливости / Pi Zi Ying Xiong 2
Страна: Китай, Тайвань, Гонконг
Жанр: боевик
Год выпуска: 2014
Продолжительность: 02:05:24
Перевод: Одноголосый закадровый [den904]
Cубтитры: нет
Режиссер: Юэ-Сун Цай / Yueh-Hsun Tsai
В ролях: Кенни Лин, Цзе Кай Сю, Терри Кван, Coulee Nazha, Джанин Чан, Марк Чао, Ши-Чжи Чжин, Бо Хуан, Те Мэн Кан, Мэнди Лью
Описание: Уже хорошо знакомый нам Ву Йин-Сьон по прозвищу «Герой» (Марк Чао) оказывается в эпицентре очередной катастрофы – по всему Харбор-сити происходит серия взрывов, осуществленных террористами-смертниками. Потихоньку центр города отрезается от остального мира, рушатся тоннели и мосты, связывающие его с «большой землей», и все это явно неспроста. С помощью случайного напарника (Лин Генсин) Герой начинает раскручивать эту историю, но времени у них в обрез.
Сэмпл: http://multi-up.com/847356
Качество видео: HDRip
Формат видео: AVI
Видео: Xvid 720x304 23.976fps 1351kbps
Аудио: Dolby AC3 48000Hz stereo 192kbps
MediaInfo
General
Complete name : D:\µTorrent\Chjornyj.i.belyj.2.Rassvet.spravedlivosti.2014.L2.HDRip.avi
Format : AVI
Format/Info : Audio Video Interleave
File size : 1.36 GiB
Duration : 2h 5mn
Overall bit rate : 1 553 Kbps
Writing application : VirtualDubMod 1.5.10.3 | www.virtualdub-fr.org || (build 2550/release)
Writing library : VirtualDubMod build 2550/release
Video
ID : 0
Format : MPEG-4 Visual
Format profile : Advanced Simple@L5
Format settings, BVOP : 1
Format settings, QPel : No
Format settings, GMC : No warppoints
Format settings, Matrix : Custom
Codec ID : XVID
Codec ID/Hint : XviD
Duration : 2h 5mn
Bit rate : 1 352 Kbps
Width : 720 pixels
Height : 304 pixels
Display aspect ratio : 2.35:1
Frame rate : 23.976 fps
Color space : YUV
Chroma subsampling : 4:2:0
Bit depth : 8 bits
Scan type : Progressive
Compression mode : Lossy
Bits/(Pixel*Frame) : 0.258
Stream size : 1.18 GiB (87%)
Writing library : XviD 73
Audio
ID : 1
Format : AC-3
Format/Info : Audio Coding 3
Mode extension : CM (complete main)
Codec ID : 2000
Duration : 2h 5mn
Bit rate mode : Constant
Bit rate : 192 Kbps
Channel(s) : 2 channels
Channel positions : Front: L R
Sampling rate : 48.0 KHz
Bit depth : 16 bits
Compression mode : Lossy
Delay relative to video : 25ms
Stream size : 172 MiB (12%)
Alignment : Split accross interleaves
Interleave, duration : 42 ms (1.00 video frame)
Interleave, preload duration : 500 ms
Скриншот c названием фильма Скриншоты
Скачать

Скачать торрент! Чёрный и белый 2: Рассвет справедливости / Pi Zi Ying Xiong 2 (Юэ-Сун Цай / Yueh-Hsun Tsai ) [2014, Китай, Тайвань, Гонконг, боевик, HDRip] VO

Как скачивать? · Что такое торрент? · Рейтинг и ограничения

Сайт не распространяет и не хранит электронные версии произведений, а лишь предоставляет доступ к создаваемому пользователями каталогу ссылок на торрент-файлы, которые содержат только списки хеш-сумм

[Профиль] [ЛС]
Показать сообщения:    
Ответить на тему

Текущее время: Сегодня 16:34

Часовой пояс: GMT + 4



Вы не можете начинать темы
Вы не можете отвечать на сообщения
Вы не можете редактировать свои сообщения
Вы не можете удалять свои сообщения
Вы не можете голосовать в опросах
Вы не можете прикреплять файлы к сообщениям
Вы не можете скачивать файлы