Китайско-голландская война 1661 года / The Sino-Dutch War 1661 / Yingxiong Zheng Chengong (Дзинью Ву / Ziniu Wu) [2001, Китай, Гонконг, боевик, драма, военный, DVDRip] AVO (Визгунов)

Ответить на тему
 
Автор Сообщение

user ®

Стаж: 13 лет

Сообщений: 15071

Пост Пост: #1 от 29-Апр-2015 09:42

[Цитировать]

Китайско-голландская война 1661 года / The Sino-Dutch War 1661 / Yingxiong Zheng Chengong- Страна: Китай, Гонконг
Жанр: боевик, драма, военный
Год выпуска: 2001
Продолжительность: 01:38:13-Перевод: Авторский (одноголосый закадровый) Сергей Визгунов
Cубтитры: нет-Режиссер: Дзинью Ву / Ziniu Wu
В ролях: Ман Чук Чиу, Йоко Шимада, Во-пинг Чиао, Шан Чжан, Шигуо Ду, Мин Ксу, Ян Чу, Ян-чи Хсу, Чун Хсиа, Чун-сонг Ли, Дингбао Ли, Лиан Лиен, Чинг-ши Ху, Ду Лин, Куанг Янг, Юкио Сомено-Описание: Китай, 17 век. Возвратившись домой, Чжэн Чэнгун (Коксинга) в 1645 году застает империю в гражданской войне. Династия Мин рушится под ударами войск династии Цин и теперь маньчжурский император Цин управляет северными землями. Ради удержания власти, Тайвань (Формоза) отдан голландцам. Чжэн Чэнгун, будучи сыном уважаемого чиновника при морском ведомстве минского Китая, вызван ко дворцу. Чжэн Чэнгун дают звание императорского хранителя. Получив такое доверие, Чжэн Чэнгун сделает все что в его власти дабы защитить империю Мин, изгнать голландских колонизаторов из Тайваня и восстановить китайское правление на острове...-Сэмпл
Качество видео: DVDRip
Формат видео: AVI
Видео: 704x400 (1.76:1), 23.976 fps, XviD MPEG-4 ~1859 kbps avg, 0.28 bit/pixel
Аудио: 48 kHz, MPEG Layer 3, 2 ch, ~128.00 kbps avg
Доп. информация
Рип Lem.
Cинхронизация звуковой дорожки alex7691.
MediaInfo
General
Complete name : E:\Downloads\Kitaisko.Gollandskaya.Voina.Vizgunov.avi
Format : AVI
Format/Info : Audio Video Interleave
File size : 1.37 GiB
Duration : 1h 38mn
Overall bit rate : 1 997 Kbps
Writing application : VirtualDubModRus 1.5.10.2 (build 2542/release)
Writing library : VirtualDubMod build 2542/release
Video
ID : 0
Format : MPEG-4 Visual
Format profile : Advanced Simple@L5
Format settings, BVOP : 2
Format settings, QPel : No
Format settings, GMC : No warppoints
Format settings, Matrix : Default (MPEG)
Muxing mode : Packed bitstream
Codec ID : XVID
Codec ID/Hint : XviD
Duration : 1h 38mn
Bit rate : 1 859 Kbps
Width : 704 pixels
Height : 400 pixels
Display aspect ratio : 16:9
Frame rate : 23.976 fps
Color space : YUV
Chroma subsampling : 4:2:0
Bit depth : 8 bits
Scan type : Progressive
Compression mode : Lossy
Bits/(Pixel*Frame) : 0.275
Stream size : 1.28 GiB (93%)
Writing library : XviD 1.2.1 (UTC 2008-12-04)
Audio
ID : 1
Format : MPEG Audio
Format version : Version 1
Format profile : Layer 3
Mode : Joint stereo
Mode extension : MS Stereo
Codec ID : 55
Codec ID/Hint : MP3
Duration : 1h 38mn
Bit rate mode : Constant
Bit rate : 128 Kbps
Channel(s) : 2 channels
Sampling rate : 48.0 KHz
Compression mode : Lossy
Stream size : 89.9 MiB (6%)
Alignment : Aligned on interleaves
Interleave, duration : 42 ms (1.00 video frame)
Interleave, preload duration : 504 ms
Скриншот c названием фильма Скриншоты
Скачать

Скачать торрент! Китайско-голландская война 1661 года / The Sino-Dutch War 1661 / Yingxiong Zheng Chengong (Дзинью Ву / Ziniu Wu) [2001, Китай, Гонконг, боевик, драма, военный, DVDRip] AVO (Визгунов)

Как скачивать? · Что такое торрент? · Рейтинг и ограничения

Сайт не распространяет и не хранит электронные версии произведений, а лишь предоставляет доступ к создаваемому пользователями каталогу ссылок на торрент-файлы, которые содержат только списки хеш-сумм

[Профиль] [ЛС]
Показать сообщения:    
Ответить на тему

Текущее время: Сегодня 21:29

Часовой пояс: GMT + 4



Вы не можете начинать темы
Вы не можете отвечать на сообщения
Вы не можете редактировать свои сообщения
Вы не можете удалять свои сообщения
Вы не можете голосовать в опросах
Вы не можете прикреплять файлы к сообщениям
Вы не можете скачивать файлы