Географ глобус пропил (Александр Велединский) [2013 г., драма, BDRip]

Ответить на тему
 
Автор Сообщение

user ®

Стаж: 7 лет 7 месяцев

Сообщений: 20008

Пост Пост: #1 от 28-Апр-2015 21:18

[Цитировать]

-Географ глобус пропил--Год выпуска: 2013Жанр: драмаПродолжительность: 02:04:52--Режиссер:Александр Велединский-В ролях:Константин Хабенский, Елена Лядова, Александр Робак, Евгения Брик (Хиривская), Анна Уколова, Евгения Крегжде, Агриппина Стеклова, Максим Лагашкин, Анфиса Черных, Андрей Прытков-Описание:
Молодой биолог Виктор Служкин от безденежья идет работать учителем географии в обычную пермскую школу. Он борется, а потом и дружит с учениками, конфликтует с завучем, ведет десятиклассников в поход — сплавляться по реке. Еще он пьет с друзьями вино, пытается ужиться с женой и водит в детский сад маленькую дочку. Он просто живет…
--Дополнительная информация:- [url=http://***/forum/viewtopic.php?t=1460328] [/url] [url=http://***/forum/viewtopic.php?t=1677970] [/url]-Сэмпл Рип совместим с бытовыми DVD-проигрывателями.--Качество видео: BDRip [url=http://***/forum/viewtopic.php?t=4644057](Исходник: Blu-ray disc 1080p )[/url]
Формат видео: AVI
Видео: XviD build 73, 640x272 (2.35:1), 24 fps, ~700 kbps, 0.167 bit/pixel
Аудио: MPEG Layer 3, 2 ch, 48 kHz, 128.00 kbps avg-Скриншоты

Название MediaInfo
General
Complete name : \Geograf_globus_propil_(2013).BDRip.mp3_[All.Films][RG].avi
Format : AVI
Format/Info : Audio Video Interleave
File size : 747 MiB
Duration : 2h 4mn
Overall bit rate : 837 Kbps
Movie name : Географ глобус пропил (2013) BDRip | [All.Films][RG][***]
Director : | [***]
Writing application : VirtualDubMod 1.5.10.3 | www.virtualdub-fr.org || (build 2550/release)
Copyright : [***]
Video
ID : 0
Format : MPEG-4 Visual
Format profile : Advanced Simple@L5
Format settings, BVOP : 2
Format settings, QPel : No
Format settings, GMC : No warppoints
Format settings, Matrix : Custom
Codec ID : XVID
Codec ID/Hint : XviD
Duration : 2h 4mn
Bit rate : 700 Kbps
Width : 640 pixels
Height : 272 pixels
Display aspect ratio : 2.35:1
Frame rate : 24.000 fps
Color space : YUV
Chroma subsampling : 4:2:0
Bit depth : 8 bits
Scan type : Progressive
Compression mode : Lossy
Bits/(Pixel*Frame) : 0.167
Stream size : 625 MiB (84%)
Writing library : XviD 73
Audio
ID : 1
Format : MPEG Audio
Format version : Version 1
Format profile : Layer 3
Codec ID : 55
Codec ID/Hint : MP3
Duration : 2h 4mn
Bit rate mode : Constant
Bit rate : 128 Kbps
Channel(s) : 2 channels
Sampling rate : 48.0 KHz
Compression mode : Lossy
Stream size : 114 MiB (15%)
Alignment : Aligned on interleaves
Interleave, duration : 42 ms (1.00 video frame)
Interleave, preload duratio : 504 ms
Writing library : LAME3.99r
Encoding settings : -m s -V 4 -q 0 -lowpass 17 -b 128
Скачать

Скачать торрент!

Как скачивать? · Что такое торрент? · Рейтинг и ограничения

Сайт не распространяет и не хранит электронные версии произведений, а лишь предоставляет доступ к создаваемому пользователями каталогу ссылок на торрент-файлы, которые содержат только списки хеш-сумм

[Профиль] [ЛС]
Показать сообщения:    
Ответить на тему

Текущее время: Сегодня 22:14

Часовой пояс: GMT + 4



Вы не можете начинать темы
Вы не можете отвечать на сообщения
Вы не можете редактировать свои сообщения
Вы не можете удалять свои сообщения
Вы не можете голосовать в опросах
Вы не можете прикреплять файлы к сообщениям
Вы не можете скачивать файлы