Испытательный срок (Игорь Нурисламов) [2014, Россия, мелодрама, романтическая комедия, HDTV 1080i]

Ответить на тему
 
Автор Сообщение

user ®

Стаж: 7 лет 7 месяцев

Сообщений: 20008

Пост Пост: #1 от 28-Апр-2015 18:12

[Цитировать]

Испытательный срок
Год выпуска: 2014
Производство: Россия, Ланд Синема
Жанр: Мелодрама, романтическая комедия
Продолжительность: 01:36:02
Субтитры: нет
Режиссёр:Игорь Нурисламов
В ролях: Михаил Тарабукин, Поля Полякова, Роман Притула, Андрей Аксёнов, Артём Анчуков, Елена Мартыненко, Дмитрий Комков, Даниил Комков, Алексей Фокин, Егор Бакулин, Геша Меньшиков, Полина Красавина, Оксана Скакун, Алёна Кучкова, Сергей Уманов, Дмитрий Макеев, Виктор Выбриенко, Полина Воронова
Описание: Гражданский муж Ксюши проворовался и скрывается от правосудия и обманутых клиентов. Всё имущество описано и отобрано. Матери-одиночке позарез надо найти работу. Дайте ей только шанс и она перевернет мир! Но… ветрянка у двоих ее близнецов рушит все планы. Новая работа могла бы разом решить все проблемы. Но как быть, если начальство не переносит слов «больничный-дети» и ни за что не возьмет на работу мать двоих малышей? «Багаж» решено скрыть, а достоинства приукрасить. Ей бы только продержаться испытательный срок, который совпал с 21 днем карантина. На помощь отчаявшейся мамочке приходит жилец, инфантильный и безответственный разгильдяй.

Качество: HDTV 1080i
Контейнер: TS
Видео: MPEG4 Video (H264) 1920x1080, ~ 7 355 Кбит/сек, 25.00fps 0.142 bit/pixel
Аудио: MP2, 2 канала, 48,0 КГц, ~320 kbps
Сторонней рекламы нет!
MI
GeneralID : 1 (0x1)Complete name : Испытательный срок (2014)\Ispytatelniy.srok.2013.HDTV.1080i.tsFormat : MPEG-TSFile size : 5.42 GiBDuration : 1h 36mnOverall bit rate mode : VariableOverall bit rate : 8 078 Kbps
VideoID : 2741 (0xAB5)Menu ID : 1044 (0x414)Format : AVCFormat/Info : Advanced Video CodecFormat profile : Main@L4.0Format settings, CABAC : YesFormat settings, ReFrames : 4 framesCodec ID : 27Duration : 1h 36mnBit rate : 7 355 KbpsWidth : 1 920 pixelsHeight : 1 080 pixelsDisplay aspect ratio : 16:9Frame rate : 25.000 fpsColor space : YUVChroma subsampling : 4:2:0Bit depth : 8 bitsScan type : InterlacedScan order : Top Field FirstBits/(Pixel*Frame) : 0.142Stream size : 4.93 GiB (91%)Color primaries : BT.709Transfer characteristics : BT.709Matrix coefficients : BT.709
AudioID : 2742 (0xAB6)Menu ID : 1044 (0x414)Format : MPEG AudioFormat version : Version 1Format profile : Layer 2Codec ID : 3Duration : 1h 36mnBit rate mode : ConstantBit rate : 320 KbpsChannel count : 2 channelsSampling rate : 48.0 KHzCompression mode : LossyStream size : 220 MiB (4%)Language : Russian
Раздача группы:
Отдельное спасибо daboen за предоставление материала.
Скриншоты Скриншот с названием фильма
Скачать

Скачать торрент!

Как скачивать? · Что такое торрент? · Рейтинг и ограничения

Сайт не распространяет и не хранит электронные версии произведений, а лишь предоставляет доступ к создаваемому пользователями каталогу ссылок на торрент-файлы, которые содержат только списки хеш-сумм

[Профиль] [ЛС]
Показать сообщения:    
Ответить на тему

Текущее время: Сегодня 14:35

Часовой пояс: GMT + 4



Вы не можете начинать темы
Вы не можете отвечать на сообщения
Вы не можете редактировать свои сообщения
Вы не можете удалять свои сообщения
Вы не можете голосовать в опросах
Вы не можете прикреплять файлы к сообщениям
Вы не можете скачивать файлы