Детройт - город рока / Detroit Rock City (Адам Рифкин / Adam Rifkin) [1999, США, комедия, приключения, BDRip 720p] MVO (R5) + AVO (П.Санаев) + Sub Eng + Original Eng

Ответить на тему
 
Автор Сообщение

user ®

Стаж: 7 лет 7 месяцев

Сообщений: 20008

Пост Пост: #1 от 27-Апр-2015 17:24

[Цитировать]

Детройт - город рока / Detroit Rock City- Страна: США
Студия: New Line Cinema
Жанр: Комедия, приключения
Год выпуска: 1999
Продолжительность: 01:34:37-Перевод: Профессиональный (многоголосый закадровый) R5
Перевод 2: Авторский (одноголосый закадровый) П.Санаев
Cубтитры: английские
Оригинальная аудиодорожка: английский-Режиссер: Адам Рифкин / Adam Rifkin
В ролях: Эдвард Ферлонг, Джузеппе Эндрюс, Джеймс Дебелло, Сэм Хантингтон, Джин Симмонс, Пол Стэнли, Эйс Фрили, Питер Крисс, Мелани Лински, Ник Скотти, Шэннон Твид, Майлз Дагэл, Наташа Лайонн, Лин Шэй
Описание: Детройт — город рока (англ. Detroit Rock City, премьера в США: 9 августа 1999 года) — фильм Адама Рифкина о приключениях четырёх парней-школьников, очень любящих группу Kiss.
Для Хоука, Лекса, Трипа и Джема только одна вещь была круче травки — это группа Kiss! И вот их кумиры приезжают в город Детройт, расположенный совсем близко. Тогда школьники решают украсть машину у родителей одного из героев и отправиться на концерт.
Но не всё так просто! На пути ребят ждет много совершенно разных приключений: побег от пастора, «разборки» с дискоманами, а также потеря билетов и разные способы найти в незнакомом городе средства на новые билеты. За ночь в Детройте все четверо ребят повзрослели, познав все плюсы и минусы взрослой и рок'н'рольной жизни.-Сэмпл: Multi-UP→
-Тип релиза: BDRip 720p
Контейнер: MKV
Видео: 1280x534 (2.40:1), 23.976 fps, 5579 Kbps
Аудио: Russian АС3, 5.1, 48 kHz, 448 kbps | Профессиональный (многоголосый, закадровый) |
Аудио 2: Russian AC3, 2.0, 48 kHz, 192 kbps | Авторский (одноголосый, закадровый), П.Санаев |
Аудио 3: English DTS, 5.1, 48 kHz, 1509 kbps | Оригинал |
Аудио 4: English AC3 2.0, 48 kHz, 192 kbps | Комментарии Адама Рифкина - отдельным файлом |
Аудио 5: English AC3 2.0, 48 kHz, 192 kbps | Комментарии съёмочной группы и актеров - отдельным файлом |
Аудио 6: English AC3 2.0, 48 kHz, 192 kbps | Комментарии участников группы KISS - отдельным файлом |
Формат субтитров: softsub (SRT)

MediaInfo
Код:
General
Unique ID : 215988171387992759185645793167555035457 (0xA27DCF065EE02D1C91B160553A220141)
Complete name : \Detroit.Rock.City.1999.BDRip.720p.mkv
Format : Matroska
Format version : Version 4 / Version 2
File size : 5.22 GiB
Duration : 1h 34mn
Overall bit rate : 7 903 Kbps
Encoded date : UTC 2015-04-26 18:26:04
Writing application : mkvmerge v7.8.0 ('River Man') 64bit built on Mar 27 2015 16:31:37
Writing library : libebml v1.3.1 + libmatroska v1.4.2
_STATISTICS_WRITING_APP : mkvmerge v7.8.0 ('River Man') 64bit built on Mar 27 2015 16:31:37
_STATISTICS_WRITING_DATE_UT : 2015-04-26 18:26:04
_STATISTICS_TAGS : BPS DURATION NUMBER_OF_FRAMES NUMBER_OF_BYTES
DURATION : 01:34:37.302000000
NUMBER_OF_FRAMES : 532247
NUMBER_OF_BYTES : 1070880964
Video
ID : 1
Format : AVC
Format/Info : Advanced Video Codec
Format profile : High@L4.1
Format settings, CABAC : Yes
Format settings, ReFrames : 12 frames
Codec ID : V_MPEG4/ISO/AVC
Duration : 1h 34mn
Bit rate : 5 597 Kbps
Width : 1 280 pixels
Height : 534 pixels
Display aspect ratio : 2.40:1
Frame rate mode : Constant
Frame rate : 23.976 fps
Color space : YUV
Chroma subsampling : 4:2:0
Bit depth : 8 bits
Scan type : Progressive
Bits/(Pixel*Frame) : 0.342
Stream size : 3.70 GiB (71%)
Writing library : x264 core 146 r2538 121396c
Encoding settings : cabac=1 / ref=12 / deblock=1:-3:-3 / analyse=0x3:0x133 / me=umh / subme=10 / psy=1 / psy_rd=1.00:0.00 / mixed_ref=1 / me_range=24 / chroma_me=1 / trellis=2 / 8x8dct=1 / cqm=0 / deadzone=21,11 / fast_pskip=0 / chroma_qp_offset=-2 / threads=12 / lookahead_threads=2 / sliced_threads=0 / nr=0 / decimate=1 / interlaced=0 / bluray_compat=0 / constrained_intra=0 / bframes=8 / b_pyramid=2 / b_adapt=2 / b_bias=0 / direct=3 / weightb=1 / open_gop=0 / weightp=2 / keyint=240 / keyint_min=23 / scenecut=40 / intra_refresh=0 / rc_lookahead=60 / rc=crf / mbtree=0 / crf=17.5 / qcomp=0.60 / qpmin=0 / qpmax=69 / qpstep=4 / vbv_maxrate=40000 / vbv_bufsize=30000 / crf_max=0.0 / nal_hrd=none / filler=0 / ip_ratio=1.40 / pb_ratio=1.30 / aq=1:0.80
Language : English
Default : Yes
Forced : No
Audio #1
ID : 2
Format : AC-3
Format/Info : Audio Coding 3
Mode extension : CM (complete main)
Format settings, Endianness : Big
Codec ID : A_AC3
Duration : 1h 34mn
Bit rate mode : Constant
Bit rate : 448 Kbps
Channel(s) : 6 channels
Channel positions : Front: L C R, Side: L R, LFE
Sampling rate : 48.0 KHz
Compression mode : Lossy
Stream size : 303 MiB (6%)
Title : MVO, R5
Language : Russian
Default : Yes
Forced : No
Audio #2
ID : 3
Format : AC-3
Format/Info : Audio Coding 3
Mode extension : CM (complete main)
Format settings, Endianness : Big
Codec ID : A_AC3
Duration : 1h 34mn
Bit rate mode : Constant
Bit rate : 192 Kbps
Channel(s) : 2 channels
Channel positions : Front: L R
Sampling rate : 48.0 KHz
Compression mode : Lossy
Stream size : 130 MiB (2%)
Title : П.Санаев
Language : Russian
Default : No
Forced : No
Audio #3
ID : 4
Format : DTS
Format/Info : Digital Theater Systems
Mode : 16
Format settings, Endianness : Big
Codec ID : A_DTS
Duration : 1h 34mn
Bit rate mode : Constant
Bit rate : 1 509 Kbps
Channel(s) : 6 channels
Channel positions : Front: L C R, Side: L R, LFE
Sampling rate : 48.0 KHz
Bit depth : 24 bits
Compression mode : Lossy
Stream size : 1 021 MiB (19%)
Title : English
Language : English
Default : No
Forced : No
Text
ID : 5
Format : UTF-8
Codec ID : S_TEXT/UTF8
Codec ID/Info : UTF-8 Plain Text
Title : English
Language : English
Default : No
Forced : No
Menu
00:00:00.000 : en:00:00:00.000
00:11:12.005 : en:00:11:12.005
00:20:22.263 : en:00:20:22.263
00:31:18.210 : en:00:31:18.210
00:42:27.712 : en:00:42:27.712
00:51:55.738 : en:00:51:55.738
01:02:06.389 : en:01:02:06.389
01:12:08.032 : en:01:12:08.032
01:22:44.418 : en:01:22:44.418
01:28:58.375 : en:01:28:58.375

x264 лог
raw [info]: 1280x534p 1:1 @ 24000/1001 fps (cfr)x264 [info]: using SAR=1/1x264 [info]: profile High, level 4.1x264 [info]: frame I:1353 Avg QP:17.04 size: 97173x264 [info]: frame P:30857 Avg QP:18.32 size: 51419x264 [info]: frame B:103887 Avg QP:20.64 size: 22747x264 [info]: consecutive B-frames: 2.4% 3.2% 8.6% 25.5% 20.8% 28.9% 5.6% 3.7% 1.3%
x264 [info]: ref P L0: 43.1% 11.2% 18.1% 6.9% 5.7% 3.7% 3.4% 1.9% 1.8% 1.4% 1.4% 1.2% 0.2% 0.0%x264 [info]: ref B L0: 71.1% 12.2% 5.9% 3.3% 2.1% 1.8% 1.3% 0.9% 0.7% 0.4% 0.2%x264 [info]: ref B L1: 92.8% 7.2%x264 [info]: kb/s:5751.87encoded 136097 frames, 11.39 fps, 5751.87 kb/s
Скриншоты

BD.................................................................BDRip


http://screenshotcomparison.com/comparison/123764
BDRip vs HDTVRip
Сравнение с [url=http://***/forum/viewtopic.php?t=3365972]http://***/forum/viewtopic.php?t=3365972[/url]
http://screenshotcomparison.com/comparison/123706
BDRip............................................................HDTVRip


Скачать

Скачать торрент!

Как скачивать? · Что такое торрент? · Рейтинг и ограничения

Сайт не распространяет и не хранит электронные версии произведений, а лишь предоставляет доступ к создаваемому пользователями каталогу ссылок на торрент-файлы, которые содержат только списки хеш-сумм

[Профиль] [ЛС]
Показать сообщения:    
Ответить на тему

Текущее время: Сегодня 01:16

Часовой пояс: GMT + 4



Вы не можете начинать темы
Вы не можете отвечать на сообщения
Вы не можете редактировать свои сообщения
Вы не можете удалять свои сообщения
Вы не можете голосовать в опросах
Вы не можете прикреплять файлы к сообщениям
Вы не можете скачивать файлы