Испытательный срок (Игорь Нурисламов) [2014, Мелодрама, романтическая комедия, HDTVRip]

Ответить на тему
 
Автор Сообщение

user ®

Стаж: 7 лет 7 месяцев

Сообщений: 20008

Пост Пост: #1 от 27-Апр-2015 14:18

[Цитировать]

Испытательный срок
Год выпуска: 2014
Производство: Россия, Ланд Синема
Жанр: Мелодрама, романтическая комедия
Продолжительность: 01:36:02
Субтитры: нет
Режиссёр:Игорь Нурисламов
В ролях: Михаил Тарабукин, Поля Полякова, Роман Притула, Андрей Аксёнов, Артём Анчуков, Елена Мартыненко, Дмитрий Комков, Даниил Комков, Алексей Фокин, Егор Бакулин, Геша Меньшиков, Полина Красавина, Оксана Скакун, Алёна Кучкова, Сергей Уманов, Дмитрий Макеев, Виктор Выбриенко, Полина Воронова
Описание: Гражданский муж Ксюши проворовался и скрывается от правосудия и обманутых клиентов. Всё имущество описано и отобрано. Матери-одиночке позарез надо найти работу. Дайте ей только шанс и она перевернет мир! Но… ветрянка у двоих ее близнецов рушит все планы. Новая работа могла бы разом решить все проблемы. Но как быть, если начальство не переносит слов «больничный-дети» и ни за что не возьмет на работу мать двоих малышей? «Багаж» решено скрыть, а достоинства приукрасить. Ей бы только продержаться испытательный срок, который совпал с 21 днем карантина. На помощь отчаявшейся мамочке приходит жилец, инфантильный и безответственный разгильдяй.

Качество: HDTVRip
Формат: AVI
Видео: 720x400 (1.80:1), 25 fps, XviD build 73 ~1837 kbps avg, 0.26 bit/pixel
Аудио: 48 kHz, AC3 Dolby Digital, 2/0 (L,R) ch, ~192 kbps
Сторонней рекламы нет!
MI
ОбщееПолное имя : F:\Ispytatelniy.srok.2013.HDTVRip.Files-x.aviФормат : AVIФормат/Информация : Audio Video InterleaveРазмер файла : 1,37 ГбайтПродолжительность : 1 ч. 36 м.Общий поток : 2039 Кбит/секПрограмма кодирования : VirtualDubMod 1.5.10.3 | www.virtualdub-fr.org || (build 2550/release)Библиотека кодирования : VirtualDubMod build 2550/release
ВидеоИдентификатор : 0Формат : MPEG-4 VisualПрофиль формата : Advanced Simple@L5Параметр BVOP формата : 1Параметр QPel формата : НетПараметр GMC формата : Без точки переходаПараметр матрицы формата : ВыборочнаяИдентификатор кодека : XVIDИдентификатор кодека/Подсказка : XviDПродолжительность : 1 ч. 36 м.Битрейт : 1837 Кбит/секШирина : 720 пикс.Высота : 400 пикс.Соотношение сторон : 16:9Частота кадров : 25,000 кадр/секЦветовое пространство : YUVПодвыборка цветности : 4:2:0Битовая глубина : 8 битТип развёртки : ПрогрессивнаяМетод сжатия : С потерямиБит/(Пиксели*Кадры) : 0.255Размер потока : 1,23 Гбайт (90%)Библиотека кодирования : XviD 73
АудиоИдентификатор : 1Формат : AC-3Формат/Информация : Audio Coding 3Расширение режима : CM (complete main)Идентификатор кодека : 2000Продолжительность : 1 ч. 36 м.Вид битрейта : ПостоянныйБитрейт : 192 Кбит/секКаналы : 2 каналаРасположение каналов : Front: L RЧастота : 48,0 КГцБитовая глубина : 16 битМетод сжатия : С потерямиРазмер потока : 132 Мбайт (9%)Выравнивание : Разделение по промежуткамПродолжительность промежутка : 40 мс. (1,00 видеокадр)Время предзагрузки промежутка : 500 ms
Раздача группы:
Отдельное спасибо xoxol5511 за предоставление материала.
Скриншоты Скриншот с названием фильма
Скачать

Скачать торрент!

Как скачивать? · Что такое торрент? · Рейтинг и ограничения

Сайт не распространяет и не хранит электронные версии произведений, а лишь предоставляет доступ к создаваемому пользователями каталогу ссылок на торрент-файлы, которые содержат только списки хеш-сумм

[Профиль] [ЛС]
Показать сообщения:    
Ответить на тему

Текущее время: Сегодня 16:05

Часовой пояс: GMT + 4



Вы не можете начинать темы
Вы не можете отвечать на сообщения
Вы не можете редактировать свои сообщения
Вы не можете удалять свои сообщения
Вы не можете голосовать в опросах
Вы не можете прикреплять файлы к сообщениям
Вы не можете скачивать файлы