Джесси Стоун: Гибель невинных / Jesse Stone: Innocents Lost (Дик Лоури / Dick Lowry) [2011, США, драма, криминал, WEB-DL 720p] AVO (Андрей Дольский) + Sub Eng + Original Eng

Ответить на тему
 
Автор Сообщение

user ®

Стаж: 7 лет 7 месяцев

Сообщений: 20008

Пост Пост: #1 от 26-Апр-2015 16:36

[Цитировать]

Джесси Стоун: Гибель невинных / Jesse Stone: Innocents Lost
Страна: США
Жанр: Драма, криминал
Год выпуска: 2011
Продолжительность: 01:30:49
Перевод: Авторский (одноголосый закадровый) Андрей Дольский
Cубтитры: английские
Оригинальная аудиодорожка: английский
Режиссер: Дик Лоури / Dick Lowry
В ролях: [url=http://***/forum/viewtopic.php?t=3271247]Том Селлек[/url], Кэти Бейкер, Кол Саддаф, Глория Рубен, Стивен МакХэтти, Уильям Сэдлер, Марк Блум, Эйлин Эйприл Бойлэн, Майк Эрвин, Джефф Геддис
Описание: После вынужденного ухода на пенсию, Джесси Стоун расследует подозрительную смерть молодой девушки, которой он когда-то пытался помочь. Ее тело нашли в машине рядом с домом Джесси, но он не верит, что смерть произошла от передозировки наркотиков...
Доп. информация: Исходник найден в Сети. Дольский взят [url=http://***/forum/viewtopic.php?t=4098754]отсюда[/url], спасибо Нордер, Arias и Lenape.
Сэмпл: http://multi-up.com/1045488
Тип релиза: WEB-DL 720p
Контейнер: MKV
Видео: MPEG-4 AVC, 1280x718, 3947 кбит/сек, 23.976 fps
Аудио: 48 kHz, AC3 Dolby Digital, 3/2 (L,C,R,l,r) + LFE ch, ~448 kbps - Дольский
Аудио 2: 48 kHz, AC3 Dolby Digital, 3/2 (L,C,R,l,r) + LFE ch, ~384 kbps - Original
MediaInfo
Полное имя : Jesse.Stone.Innocents.Lost.2011.720p.WEB-DL.mkv
Формат : Matroska
Версия формата : Version 2
Размер файла : 3,09 Гбайт
Продолжительность : 1 ч. 30 м.
Общий поток : 4876 Кбит/сек
Дата кодирования : UTC 2015-04-25 11:57:36
Программа кодирования : mkvmerge v3.0.0 ('Hang up your Hang-Ups') built on Dec 12 2009 15:20:35
Библиотека кодирования : libebml v0.7.9 + libmatroska v0.8.1
Видео
Идентификатор : 1
Формат : AVC
Формат/Информация : Advanced Video Codec
Профиль формата : High@L3.1
Параметр CABAC формата : Нет
Параметр ReFrames формата : 2 кадра
Идентификатор кодека : V_MPEG4/ISO/AVC
Продолжительность : 1 ч. 30 м.
Битрейт : 3947 Кбит/сек
Ширина : 1280 пикселей
Высота : 718 пикселей
Соотношение сторон : 16:9
Режим частоты кадров : Постоянный
Частота кадров : 23,976 кадра/сек
Цветовое пространство : YUV
Субдискретизация насыщенности : 4:2:0
Битовая глубина : 8 бит
Тип развёртки : Прогрессивная
Бит/(Пиксели*Кадры) : 0.179
Размер потока : 2,50 Гбайт (81%)
Язык : English
Default : Нет
Forced : Нет
Основные цвета : BT.709
Характеристики трансфера : BT.709
Коэффициенты матрицы : BT.709
Аудио #1
Идентификатор : 2
Формат : AC-3
Формат/Информация : Audio Coding 3
Расширение режима : CM (complete main)
Параметр Endianness формата : Big
Идентификатор кодека : A_AC3
Продолжительность : 1 ч. 30 м.
Вид битрейта : Постоянный
Битрейт : 448 Кбит/сек
Каналы : 6 каналов
Расположение каналов : Front: L C R, Side: L R, LFE
Частота : 48,0 КГц
Битовая глубина : 16 бит
Метод сжатия : С потерями
Задержка видео : 316 мс.
Размер потока : 291 Мбайт (9%)
Заголовок : Дольский
Язык : Russian
Default : Да
Forced : Нет
Аудио #2
Идентификатор : 3
Формат : AC-3
Формат/Информация : Audio Coding 3
Расширение режима : CM (complete main)
Параметр Endianness формата : Big
Идентификатор кодека : A_AC3
Продолжительность : 1 ч. 30 м.
Вид битрейта : Постоянный
Битрейт : 384 Кбит/сек
Каналы : 6 каналов
Расположение каналов : Front: L C R, Side: L R, LFE
Частота : 48,0 КГц
Битовая глубина : 16 бит
Метод сжатия : С потерями
Размер потока : 249 Мбайт (8%)
Заголовок : Original
Язык : English
Default : Нет
Forced : Нет
Текст
Идентификатор : 4
Формат : UTF-8
Идентификатор кодека : S_TEXT/UTF8
Идентификатор кодека/Информация : UTF-8 Plain Text
Язык : English
Default : Нет
Forced : Нет
Меню
00:00:00.000 : en:Chapter 1
00:06:09.000 : en:Chapter 2
00:10:19.000 : en:Chapter 3
00:16:07.000 : en:Chapter 4
00:22:38.000 : en:Chapter 5
00:28:03.000 : en:Chapter 6
00:32:33.000 : en:Chapter 7
00:38:35.000 : en:Chapter 8
00:42:52.000 : en:Chapter 9
00:48:59.000 : en:Chapter 10
00:54:18.000 : en:Chapter 11
01:00:13.000 : en:Chapter 12
01:04:34.000 : en:Chapter 13
01:11:22.000 : en:Chapter 14
01:16:38.000 : en:Chapter 15
01:21:35.000 : en:Chapter 16
Скриншоты
Скачать

Скачать торрент!

Как скачивать? · Что такое торрент? · Рейтинг и ограничения

Сайт не распространяет и не хранит электронные версии произведений, а лишь предоставляет доступ к создаваемому пользователями каталогу ссылок на торрент-файлы, которые содержат только списки хеш-сумм

[Профиль] [ЛС]
Показать сообщения:    
Ответить на тему

Текущее время: Сегодня 11:40

Часовой пояс: GMT + 4



Вы не можете начинать темы
Вы не можете отвечать на сообщения
Вы не можете редактировать свои сообщения
Вы не можете удалять свои сообщения
Вы не можете голосовать в опросах
Вы не можете прикреплять файлы к сообщениям
Вы не можете скачивать файлы