Техники / Специалисты / The Con Artists / Criminal Designer / Gisuljadeul (Ким Хон Сон / Hong-seon Kim) [2014, Южная Корея, боевик, криминал, приключения, HDRip] MVO [Animelur]

Ответить на тему
 
Автор Сообщение

user ®

Стаж: 11 лет

Сообщений: 15151

Пост Пост: #1 от 26-Апр-2015 04:12

[Цитировать]

Техники / Специалисты / The Con Artists / Criminal Designer / Gisuljadeul- -Страна: Южная Корея
Жанр: боевик, криминал, приключения
Год выпуска: 2014
Продолжительность: 01:57:02-Перевод: Любительский (многоголосый закадровый) [Animelur] по переводу [ФСГ 'Cardinals']-Cубтитры: нет
Оригинальная аудиодорожка: нет
Режиссер: Ким Хон Сон / Hong-seon Kim
В ролях: Ким У Бин, Ли Хён У, Чо Юн Хье, Ён-чхоль Ким, Ко Чан Сок, Чо Даль Хван, Гу Шин, Им Чжу Хван, Чон Ман Сик
Описание: История о приключениях лучшего взломщика сейфов, хакера и их друзей. Преступная группа намерена похитить 150 миллиардов вон из офиса таможни в столичном аэропорту Инчхон. Эти безумные деньги появятся там всего на сорок минут, поэтому времени на ошибку у парней нет.
Релиз от - & "Animelur"
Сэмпл: http://multi-up.com/1045582
Видео: MPEG-4 Visual at 1588 Кбит/сек; 720 x 304 (2.368) at 24.000 fps
Аудио: AC-3 at 192 Кбит/сек; 2 канала, 48,0 КГц
Автор -
MediaInfo
бщее
Полное имя : D:\Фильмы\Азиатские\Специалисты\Criminal Designer.2014.HDRip.XviD.1400MB. rip by [Asssassin's Creed].avi
Формат : AVI
Формат/Информация : Audio Video Interleave
Размер файла : 1,46 Гбайт
Продолжительность : 1 ч. 57 м.
Общий поток : 1790 Кбит/сек
Программа кодирования : VirtualDubMod 1.5.10.3 | www.virtualdub-fr.org || (build 2550/release)
Библиотека кодирования : VirtualDubMod build 2550/release
Видео
Идентификатор : 0
Формат : MPEG-4 Visual
Профиль формата : Advanced Simple@L5
Параметр BVOP формата : 1
Параметр QPel формата : Нет
Параметр GMC формата : Без точки перехода
Параметр матрицы формата : Default (MPEG)
Идентификатор кодека : XVID
Идентификатор кодека/Подсказка : XviD
Продолжительность : 1 ч. 57 м.
Битрейт : 1588 Кбит/сек
Ширина : 720 пикселей
Высота : 304 пикселя
Соотношение сторон : 2,35:1
Частота кадров : 24,000 кадра/сек
Цветовое пространство : YUV
Субдискретизация насыщенности : 4:2:0
Битовая глубина : 8 бит
Тип развёртки : Прогрессивная
Метод сжатия : С потерями
Бит/(Пиксели*Кадры) : 0.302
Размер потока : 1,30 Гбайт (89%)
Библиотека кодирования : XviD 1.2.1 (UTC 2008-12-04)
Аудио
Идентификатор : 1
Формат : AC-3
Формат/Информация : Audio Coding 3
Расширение режима : CM (complete main)
Параметр Endianness формата : Big
Идентификатор кодека : 2000
Продолжительность : 1 ч. 57 м.
Вид битрейта : Постоянный
Битрейт : 192 Кбит/сек
Каналы : 2 канала
Расположение каналов : Front: L R
Частота : 48,0 КГц
Битовая глубина : 16 бит
Метод сжатия : С потерями
Размер потока : 161 Мбайт (11%)
Выравнивание : Разделение по промежуткам
Продолжительность промежутка : 42 мс. (1,00 видеокадр)
Время предзагрузки промежутка : 500 мс.
Скриншот c названием фильма Скриншоты
Скачать

Скачать торрент! Техники / Специалисты / The Con Artists / Criminal Designer / Gisuljadeul (Ким Хон Сон / Hong-seon Kim) [2014, Южная Корея, боевик, криминал, приключения, HDRip] MVO [Animelur]

Как скачивать? · Что такое торрент? · Рейтинг и ограничения

Сайт не распространяет и не хранит электронные версии произведений, а лишь предоставляет доступ к создаваемому пользователями каталогу ссылок на торрент-файлы, которые содержат только списки хеш-сумм

[Профиль] [ЛС]
Показать сообщения:    
Ответить на тему

Текущее время: Сегодня 23:47

Часовой пояс: GMT + 4



Вы не можете начинать темы
Вы не можете отвечать на сообщения
Вы не можете редактировать свои сообщения
Вы не можете удалять свои сообщения
Вы не можете голосовать в опросах
Вы не можете прикреплять файлы к сообщениям
Вы не можете скачивать файлы