Женщины против мужчин (Таир Мамедов) [2015, комедия, WEB-DLRip]

Ответить на тему
 
Автор Сообщение

user ®

Стаж: 7 лет 7 месяцев

Сообщений: 20008

Пост Пост: #1 от 25-Апр-2015 22:00

[Цитировать]

Женщины против мужчин
Жанр: комедия
Год выпуска: 2015
Продолжительность: 01:20:35
Режиссёр: Таир Мамедов
В ролях: Роман Юнусов, Александр Головин, Денис Косяков, Мария Кравченко, Настасья Самбурская, Наталья Рудова, Таир Мамедов, Олег Верещагин, Карен Манташян, Александр Шаляпин
Описание: Школьная любовь трех замечательных пар заканчивается тремя прекрасными свадьбами и сумасшедшим свадебным путешествием на экзотическую и горячую Кубу. Но первый же день долгожданного медового месяца окончился гигантской ссорой, переходящей в вечную войну мужчин против женщин. А на войне, как и в любви, правил нет! Пираньи в бассейн? Запросто! Пожар в номере? Не вопрос! Флирт на глазах у любимого мужа? Однозначно, да! И все это, конечно же, во имя любви!

Качество видео: WEB-DLRip (Исх. WEB-DL 720p)
Формат видео: AVI
Видео: 688x368 (1.87:1), 25 fps, XviD build 73 ~1155 kbps avg, 0.18 bit/pixel
Аудио: 48 kHz, MPEG Layer 3, 2 ch, ~128.00 kbps avg
MediaInfo
Общее
Полное имя : S:ФильмыЖенщины против мужчин. 2015. WEB-DLRip.avi
Формат : AVI
Формат/Информация : Audio Video Interleave
Размер файла : 745 Мбайт
Продолжительность : 1 ч. 20 м.
Общий поток : 1293 Кбит/сек
Программа кодирования : VirtualDubMod 1.5.10.3 | www.virtualdub-fr.org || (build 2550/release)
Библиотека кодирования : VirtualDubMod build 2550/release
Видео
Идентификатор : 0
Формат : MPEG-4 Visual
Профиль формата : Advanced Simple@L5
Параметр BVOP формата : 1
Параметр QPel формата : Нет
Параметр GMC формата : Без точки перехода
Параметр матрицы формата : Выборочная
Идентификатор кодека : XVID
Идентификатор кодека/Подсказка : XviD
Продолжительность : 1 ч. 20 м.
Битрейт : 1155 Кбит/сек
Ширина : 688 пикс.
Высота : 368 пикс.
Соотношение сторон : 1,870
Частота кадров : 25,000 кадр/сек
Цветовое пространство : YUV
Подвыборка цветности : 4:2:0
Битовая глубина : 8 бит
Тип развёртки : Прогрессивная
Метод сжатия : С потерями
Бит/(Пиксели*Кадры) : 0.182
Размер потока : 666 Мбайт (89%)
Библиотека кодирования : XviD 73
Аудио
Идентификатор : 1
Формат : MPEG Audio
Версия формата : Version 1
Профиль формата : Layer 3
Идентификатор кодека : 55
Идентификатор кодека/Подсказка : MP3
Продолжительность : 1 ч. 20 м.
Вид битрейта : Постоянный
Битрейт : 128 Кбит/сек
Каналы : 2 канала
Частота : 48,0 КГц
Метод сжатия : С потерями
Размер потока : 73,8 Мбайт (10%)
Выравнивание : Соединение по промежуткам
Продолжительность промежутка : 40 мс. (1,00 видеокадр)
Время предзагрузки промежутка : 504 ms
Библиотека кодирования : LAME3.99r
Настройки программы : -m s -V 4 -q 2 -lowpass 17 -b 128
Скриншот c названием фильма Скриншоты
Скачать

Скачать торрент!

Как скачивать? · Что такое торрент? · Рейтинг и ограничения

Сайт не распространяет и не хранит электронные версии произведений, а лишь предоставляет доступ к создаваемому пользователями каталогу ссылок на торрент-файлы, которые содержат только списки хеш-сумм

[Профиль] [ЛС]
Показать сообщения:    
Ответить на тему

Текущее время: Сегодня 04:17

Часовой пояс: GMT + 4



Вы не можете начинать темы
Вы не можете отвечать на сообщения
Вы не можете редактировать свои сообщения
Вы не можете удалять свои сообщения
Вы не можете голосовать в опросах
Вы не можете прикреплять файлы к сообщениям
Вы не можете скачивать файлы