Терминатор 3: Восстание машин / Terminator 3: Rise of the Machines (Джонатан Мостоу / Jonathan Mostow) [2003, США, фантастика, боевик, HDTVRip 720p] [Open Matte] Dub + MVO (Карусель) + MVO + AVO (Андрей Гаврилов) + Sub Rus, Eng + Original Eng

Ответить на тему
 
Автор Сообщение

user ®

Стаж: 7 лет 7 месяцев

Сообщений: 20008

Пост Пост: #1 от 25-Апр-2015 18:54

[Цитировать]

25.04.15 торрент перезалит, убрана озвучка "Держиморда".-Терминатор 3: Восстание машин / Terminator 3: Rise of the Machines / Open Matte
Страна: США
Жанр: фантастика, боевик
Год выпуска: 2003
Продолжительность: 01:48:03
Перевод 1: Профессиональный (дублированный)
Перевод 2: Профессиональный (многоголосый закадровый) Карусель
Перевод 3: Профессиональный (многоголосый закадровый)
Перевод 4: Авторский (одноголосый закадровый) Андрей Гаврилов
Cубтитры: русские, английские
Оригинальная аудиодорожка: английский
Режиссер: Джонатан Мостоу / Jonathan Mostow
В ролях: Арнольд Шварценеггер, Ник Стал, Клер Дэйнс, Кристанна Локен, Дэвид Эндрюс, Марк Фамиглетти, Эрл Боэн, Мойра Харрис, Чоппер Бернет, Кристофер Лоуфорд...
Описание: Прошло десять лет с тех пор, как Джон Коннор помог предотвратить Судный День и спасти человечество от массового уничтожения. Теперь Коннор не живет «как все» — у него нет дома, нет кредитных карт, нет сотового телефона и никакой работы.Его существование нигде не зарегистрировано. Он не может быть прослежен системой Skynet — высокоразвитой сетью машин, которые когда-то попробовали убить его и развязать войну против человечества. Пока из теней будущего не появляется T-X — Терминатрикс, самый сложный киборг-убийца Skynet.Посланная назад сквозь время, чтобы завершить работу, начатую её предшественником, T-1000, эта машина так же упорна, как прекрасен её человеческий облик. Теперь единственная надежда Коннору выжить — Терминатор, его таинственный прежний убийца. Вместе они должны одержать победу над новыми технологиями T-X и снова предотвратить Судный День…
Доп. информация: В исходнике присутствуют битые кадры, на отрезке 00:08:56 - 00:08:59.
Синронизация звука - Dreven.
Дубляж и оригинал с раздачи [url=http://***/forum/viewtopic.php?t=3894048]Юрист[/url].
Сэмпл: http://multi-up.com/1045481
Тип релиза: HDTVRip 720p [url=http://***/forum/viewtopic.php?t=123482]Исходник[/url]
Контейнер: MKV
Видео: 1280x720 (16:9), 23.976 fps, AVC, ~5200 Kbps, 0.235 bits/pixel
Аудио 1: Russian, 48.0 KHz, AC3, 6 ch, 448 Kbps
Аудио 2: Russian, 48.0 KHz, AC3, 6 ch, 448 Kbps - Карусель
Аудио 3: Russian, 48.0 KHz, AC3, 6 ch, 448 Kbps
Аудио 4: Russian, 48.0 KHz, AC3, 6 ch, 448 Kbps - Андрей Гаврилов
Аудио 5: English, 48.0 KHz, AC3, 6 ch, 448 Kbps

Сравнение
[url=http://***/forum/viewtopic.php?t=1774965]http://***/forum/viewtopic.php?t=1774965[/url]
http://screenshotcomparison.com/comparison/123454/picture:0
AVI + нарушение аспекта 1280x736
MediaInfo
General
Unique ID : 182358042533430979331930945116904237047 (0x8930E1A81DB6831F8889CB6088A227F7)
Complete name : D:\Terminator 3 - Rise of the Machines [Open Matte].mkv
Format : Matroska
Format version : Version 4 / Version 2
File size : 5.62 GiB
Duration : 1h 48mn
Overall bit rate : 7 441 Kbps
Encoded date : UTC 2015-04-25 11:29:44
Writing application : mkvmerge v7.7.0 ('Six Voices') 64bit built on Feb 28 2015 23:39:33
Writing library : libebml v1.3.1 + libmatroska v1.4.2
DURATION : 01:39:54.979000000
NUMBER_OF_FRAMES : 733
NUMBER_OF_BYTES : 24438
_STATISTICS_WRITING_APP : mkvmerge v7.7.0 ('Six Voices') 64bit built on Feb 28 2015 23:39:33
_STATISTICS_WRITING_DATE_UT : 2015-04-25 11:29:44
_STATISTICS_TAGS : BPS DURATION NUMBER_OF_FRAMES NUMBER_OF_BYTES
Video
ID : 1
Format : AVC
Format/Info : Advanced Video Codec
Format profile : High@L4.1
Format settings, CABAC : Yes
Format settings, ReFrames : 9 frames
Codec ID : V_MPEG4/ISO/AVC
Duration : 1h 48mn
Bit rate : 5 200 Kbps
Width : 1 280 pixels
Height : 720 pixels
Display aspect ratio : 16:9
Frame rate mode : Constant
Frame rate : 23.976 fps
Color space : YUV
Chroma subsampling : 4:2:0
Bit depth : 8 bits
Scan type : Progressive
Bits/(Pixel*Frame) : 0.235
Stream size : 3.81 GiB (68%)
Writing library : x264 core 142 r2479 dd79a61
Encoding settings : cabac=1 / ref=9 / deblock=1:-1:-1 / analyse=0x3:0x133 / me=umh / subme=11 / psy=1 / psy_rd=1.00:0.10 / mixed_ref=1 / me_range=32 / chroma_me=1 / trellis=2 / 8x8dct=1 / cqm=0 / deadzone=21,11 / fast_pskip=0 / chroma_qp_offset=-3 / threads=6 / lookahead_threads=1 / sliced_threads=0 / nr=0 / decimate=1 / interlaced=0 / bluray_compat=0 / constrained_intra=0 / bframes=10 / b_pyramid=2 / b_adapt=2 / b_bias=0 / direct=3 / weightb=1 / open_gop=0 / weightp=2 / keyint=250 / keyint_min=23 / scenecut=40 / intra_refresh=0 / rc_lookahead=50 / rc=2pass / mbtree=1 / bitrate=5200 / ratetol=1.0 / qcomp=0.60 / qpmin=0 / qpmax=69 / qpstep=4 / cplxblur=20.0 / qblur=0.5 / ip_ratio=1.40 / aq=1:1.00
Language : English
Default : Yes
Forced : No
Audio #1
ID : 2
Format : AC-3
Format/Info : Audio Coding 3
Mode extension : CM (complete main)
Format settings, Endianness : Big
Codec ID : A_AC3
Duration : 1h 48mn
Bit rate mode : Constant
Bit rate : 448 Kbps
Channel(s) : 6 channels
Channel positions : Front: L C R, Side: L R, LFE
Sampling rate : 48.0 KHz
Bit depth : 16 bits
Compression mode : Lossy
Stream size : 346 MiB (6%)
Language : Russian
Default : Yes
Forced : No
Audio #2
ID : 3
Format : AC-3
Format/Info : Audio Coding 3
Mode extension : CM (complete main)
Format settings, Endianness : Big
Codec ID : A_AC3
Duration : 1h 48mn
Bit rate mode : Constant
Bit rate : 448 Kbps
Channel(s) : 6 channels
Channel positions : Front: L C R, Side: L R, LFE
Sampling rate : 48.0 KHz
Bit depth : 16 bits
Compression mode : Lossy
Stream size : 346 MiB (6%)
Title : Карусель
Language : Russian
Default : No
Forced : No
Audio #3
ID : 4
Format : AC-3
Format/Info : Audio Coding 3
Mode extension : CM (complete main)
Format settings, Endianness : Big
Codec ID : A_AC3
Duration : 1h 48mn
Bit rate mode : Constant
Bit rate : 448 Kbps
Channel(s) : 6 channels
Channel positions : Front: L C R, Side: L R, LFE
Sampling rate : 48.0 KHz
Bit depth : 16 bits
Compression mode : Lossy
Stream size : 346 MiB (6%)
Language : Russian
Default : No
Forced : No
Audio #4
ID : 5
Format : AC-3
Format/Info : Audio Coding 3
Mode extension : CM (complete main)
Format settings, Endianness : Big
Codec ID : A_AC3
Duration : 1h 48mn
Bit rate mode : Constant
Bit rate : 448 Kbps
Channel(s) : 6 channels
Channel positions : Front: L C R, Side: L R, LFE
Sampling rate : 48.0 KHz
Bit depth : 16 bits
Compression mode : Lossy
Stream size : 346 MiB (6%)
Title : Андрей Гаврилов
Language : Russian
Default : No
Forced : No
Audio #5
ID : 6
Format : AC-3
Format/Info : Audio Coding 3
Mode extension : CM (complete main)
Format settings, Endianness : Big
Codec ID : A_AC3
Duration : 1h 48mn
Bit rate mode : Constant
Bit rate : 448 Kbps
Channel(s) : 6 channels
Channel positions : Front: L C R, Side: L R, LFE
Sampling rate : 48.0 KHz
Bit depth : 16 bits
Compression mode : Lossy
Stream size : 346 MiB (6%)
Language : English
Default : No
Forced : No
Text #1
ID : 7
Format : UTF-8
Codec ID : S_TEXT/UTF8
Codec ID/Info : UTF-8 Plain Text
Language : Russian
Default : No
Forced : No
Text #2
ID : 8
Format : UTF-8
Codec ID : S_TEXT/UTF8
Codec ID/Info : UTF-8 Plain Text
Language : English
Default : No
Forced : No
Menu
00:00:00.000 : :Chapter 01
00:03:43.634 : :Chapter 02
00:05:49.502 : :Chapter 03
00:09:18.303 : :Chapter 04
00:11:30.803 : :Chapter 05
00:16:25.671 : :Chapter 06
00:20:28.338 : :Chapter 07
00:23:03.338 : :Chapter 08
00:26:21.139 : :Chapter 09
00:29:37.606 : :Chapter 10
00:32:33.006 : :Chapter 11
00:35:20.373 : :Chapter 12
00:38:20.040 : :Chapter 13
00:42:21.574 : :Chapter 14
00:43:53.841 : :Chapter 15
00:48:31.841 : :Chapter 16
00:51:51.742 : :Chapter 17
00:53:59.443 : :Chapter 18
00:57:39.443 : :Chapter 19
01:00:10.777 : :Chapter 20
01:05:50.745 : :Chapter 21
01:08:35.979 : :Chapter 22
01:10:51.446 : :Chapter 23
01:14:00.446 : :Chapter 24
01:18:27.746 : :Chapter 25
01:21:17.347 : :Chapter 26
01:24:52.547 : :Chapter 27
01:29:00.214 : :Chapter 28
01:31:39.581 : :Chapter 29
01:33:43.581 : :Chapter 30
01:35:43.182 : :Chapter 31
01:39:04.682 : :Chapter 32
01:41:51.316 : :Chapter 33
Log
avs4x264.exe: -L x264_64.exe --pass 2 --bitrate 5200 --preset medium --level 4.1 --ref 9 --deblock -1:-1 --merange 32 --bframes 10 --direct auto --b-adapt 2 --trellis 2 --no-fast-pskip --psy-rd 1.00:0.10 --partitions all --subme 11 --me umh --rc-lookahead 50 --sar 1:1 --stats
raw [info]: 1280x720p 1:1 @ 24000/1001 fps (cfr)
x264 [info]: using SAR=1/1
x264 [info]: using cpu capabilities: MMX2 SSE2Fast LZCNT
x264 [info]: profile High, level 4.1
x264 [info]: frame I:1203 Avg QP:13.64 size:107214
x264 [info]: frame P:38849 Avg QP:17.14 size: 47843
x264 [info]: frame B:115387 Avg QP:19.21 size: 19286
x264 [info]: consecutive B-frames: 3.6% 6.5% 11.1% 26.3% 14.9% 22.3% 6.6% 5.7% 1.4% 0.6% 1.1%
x264 [info]: mb I I16..4: 9.2% 60.6% 30.2%
x264 [info]: mb P I16..4: 2.2% 20.9% 2.4% P16..4: 27.0% 29.3% 8.6% 1.5% 0.1% skip: 8.0%
x264 [info]: mb B I16..4: 0.4% 3.6% 0.3% B16..8: 35.5% 23.0% 3.3% direct: 8.7% skip:25.2% L0:43.8% L1:42.9% BI:13.3%
x264 [info]: 8x8 transform intra:80.8% inter:63.0%
x264 [info]: direct mvs spatial:98.2% temporal:1.8%
x264 [info]: coded y,uvDC,uvAC intra: 82.4% 72.6% 43.2% inter: 34.3% 25.2% 3.4%
x264 [info]: i16 v,h,dc,p: 28% 15% 6% 51%
x264 [info]: i8 v,h,dc,ddl,ddr,vr,hd,vl,hu: 8% 10% 10% 9% 12% 11% 13% 11% 16%
x264 [info]: i4 v,h,dc,ddl,ddr,vr,hd,vl,hu: 12% 15% 10% 7% 11% 10% 12% 9% 14%
x264 [info]: i8c dc,h,v,p: 35% 33% 18% 14%
x264 [info]: Weighted P-Frames: Y:4.7% UV:2.1%
x264 [info]: ref P L0: 43.3% 9.3% 20.4% 7.2% 6.4% 4.3% 4.0% 2.3% 2.4% 0.4% 0.0%
x264 [info]: ref B L0: 74.8% 12.4% 5.2% 2.8% 2.0% 1.6% 0.9% 0.3%
x264 [info]: ref B L1: 93.1% 6.9%
x264 [info]: kb/s:5198.74
x264 [total]: encoded 155439 frames, 3.85 fps, 5198.74 kb/s
Скриншоты
Скачать

Скачать торрент!

Как скачивать? · Что такое торрент? · Рейтинг и ограничения

Сайт не распространяет и не хранит электронные версии произведений, а лишь предоставляет доступ к создаваемому пользователями каталогу ссылок на торрент-файлы, которые содержат только списки хеш-сумм

[Профиль] [ЛС]
Показать сообщения:    
Ответить на тему

Текущее время: Сегодня 13:53

Часовой пояс: GMT + 4



Вы не можете начинать темы
Вы не можете отвечать на сообщения
Вы не можете редактировать свои сообщения
Вы не можете удалять свои сообщения
Вы не можете голосовать в опросах
Вы не можете прикреплять файлы к сообщениям
Вы не можете скачивать файлы