Седьмой сын / Seventh Son (Сергей Бодров / Sergey Bodrov) [2014, Великобритания, США, Канада, Китай, фэнтези, приключения, BDRip 1080p] Dub + Sub Rus, Ukr, Eng + Original Eng

Ответить на тему
 
Автор Сообщение

user ®

Стаж: 7 лет 7 месяцев

Сообщений: 20008

Пост Пост: #1 от 25-Апр-2015 15:48

[Цитировать]

Седьмой сын / Seventh Son Страна: Великобритания, США, Канада, Китай
Студия: Legendary Pictures, Moving Picture Company
Жанр: фэнтези, приключения
Год выпуска: 2014
Продолжительность: 01:41:59
Перевод: Профессиональный (дублированный) Blu-ray CEE
Cубтитры: русские (forced, full), украинские, английские (full, SDH)
Оригинальная аудиодорожка: английский
Режиссер: Сергей Бодров / Sergey Bodrov
В ролях: Бен Барнс, Джефф Бриджес, Джулианна Мур, Алисия Викандер, Кит Харингтон, Джимон Хонсу, Оливия Уильямс, Антье Трауэ, Джейсон Скотт Ли, Дэвид Кабитт
Описание: Рассказ в фильме пойдет про парня, который, так уж вышло, стал седьмым сыном седьмого сына. А только такой человек может стать ведьмаком. Но этого недостаточно, чтобы именовать себя так — необходимо пройти массу тренировок, а также усердно учиться. Ведь главное оружие ведьмака — это его ум. Хоть в народе их не любят, но кто-то же обязан убивать нечисть, хранить землю от сил зла и делать всю грязную работу? Юный Том Уорд попробует стать тем самым учеником ведьмака.

Тип релиза: BDRip 1080p [FTO]
Контейнер: MKV
Видео: AVC, 1920x800, 11400Kbps, 23.976 fps
Аудио 1: Russian: 48 kHz, DTS, 3/2 (L,C,R,l,r) + LFE ch, ~768.00 kbps avg |Blu-ray CEE|
Аудио 2: English: 48 kHz, DTS, 3/2 (L,C,R,l,r) + LFE ch, ~1536.00 kbps avg |Original|
Чаптеры: есть

x264 log
x264 [info]: frame I:1013 Avg QP:14.83 size:222815
x264 [info]: frame P:35694 Avg QP:15.94 size:101021
x264 [info]: frame B:110020 Avg QP:18.45 size: 45418
x264 [info]: consecutive B-frames: 2.9% 7.2% 11.0% 15.7% 15.7% 42.6% 3.1% 0.5% 0.6% 0.3% 0.1% 0.2%
encoded 146727 frames, 2.11 fps, 11540.93 kb/s
MediaInfo
General
Unique ID : 245629430157052219398050231729924254581 (0xB8CA81E9F6399566A351F80A2EEEAB75)
Complete name : D:\\Seventh.Son.2014.1080p.BluRay.DTS.x264-Talian-.mkv
Format : Matroska
Format version : Version 2
File size : 9.85 GiB
Duration : 1h 41mn
Overall bit rate : 13.8 Mbps
Movie name : Seventh Son-Talian-
Encoded date : UTC 2015-04-23 19:32:07
Writing application : mkvmerge v5.7.0 ('The Whirlwind') built on Jul 8 2012 20:08:51
Writing library : libebml v1.2.3 + libmatroska v1.3.0
Attachment : Yes
Video
ID : 1
Format : AVC
Format/Info : Advanced Video Codec
Format profile : High@L4.1
Format settings, CABAC : Yes
Format settings, ReFrames : 5 frames
Codec ID : V_MPEG4/ISO/AVC
Duration : 1h 41mn
Bit rate : 11.3 Mbps
Width : 1 920 pixels
Height : 800 pixels
Display aspect ratio : 2.40:1
Frame rate : 23.976 fps
Color space : YUV
Chroma subsampling : 4:2:0
Bit depth : 8 bits
Scan type : Progressive
Bits/(Pixel*Frame) : 0.306
Stream size : 8.04 GiB (82%)
Title : FTO
Writing library : x264 core 142 r2491 24e4fed
Encoding settings : cabac=1 / ref=5 / deblock=1:-3:-3 / analyse=0x3:0x133 / me=tesa / subme=11 / psy=1 / psy_rd=1.05:0.00 / mixed_ref=1 / me_range=24 / chroma_me=1 / trellis=2 / 8x8dct=1 / cqm=0 / deadzone=21,11 / fast_pskip=0 / chroma_qp_offset=-2 / threads=12 / lookahead_threads=3 / sliced_threads=0 / nr=0 / decimate=1 / interlaced=0 / bluray_compat=0 / constrained_intra=0 / bframes=11 / b_pyramid=2 / b_adapt=2 / b_bias=0 / direct=3 / weightb=1 / open_gop=0 / weightp=2 / keyint=250 / keyint_min=23 / scenecut=40 / intra_refresh=0 / rc=crf / mbtree=0 / crf=17.0 / qcomp=0.70 / qpmin=0 / qpmax=69 / qpstep=4 / ip_ratio=1.40 / pb_ratio=1.30 / aq=1:0.70
Language : English
Default : Yes
Forced : No
Matrix coefficients : BT.709-5, BT.1361, IEC 61966-2-4 709, SMPTE RP177
Audio #1
ID : 2
Format : DTS
Format/Info : Digital Theater Systems
Codec ID : A_DTS
Duration : 1h 41mn
Bit rate mode : Constant
Bit rate : 755 Kbps
Channel(s) : 6 channels
Channel positions : Front: L C R, Side: L R, LFE
Sampling rate : 48.0 KHz
Bit depth : 24 bits
Compression mode : Lossy
Stream size : 550 MiB (5%)
Title : DUB-Blu-ray CEE
Language : Russian
Default : Yes
Forced : No
Audio #2
ID : 3
Format : DTS
Format/Info : Digital Theater Systems
Codec ID : A_DTS
Duration : 1h 41mn
Bit rate mode : Constant
Bit rate : 1 510 Kbps
Channel(s) : 6 channels
Channel positions : Front: L C R, Side: L R, LFE
Sampling rate : 48.0 KHz
Bit depth : 24 bits
Compression mode : Lossy
Stream size : 1.08 GiB (11%)
Title : Original
Language : English
Default : No
Forced : No
Text #1
ID : 4
Format : UTF-8
Codec ID : S_TEXT/UTF8
Codec ID/Info : UTF-8 Plain Text
Title : Sub-forced
Language : Russian
Default : Yes
Forced : No
Text #2
ID : 5
Format : UTF-8
Codec ID : S_TEXT/UTF8
Codec ID/Info : UTF-8 Plain Text
Title : Sub-full
Language : Russian
Default : No
Forced : No
Text #3
ID : 6
Format : UTF-8
Codec ID : S_TEXT/UTF8
Codec ID/Info : UTF-8 Plain Text
Title : Sub-full
Language : Ukrainian
Default : No
Forced : No
Text #4
ID : 7
Format : UTF-8
Codec ID : S_TEXT/UTF8
Codec ID/Info : UTF-8 Plain Text
Title : Sub-full
Language : English
Default : No
Forced : No
Text #5
ID : 8
Format : UTF-8
Codec ID : S_TEXT/UTF8
Codec ID/Info : UTF-8 Plain Text
Title : Sub-SDH
Language : English
Default : No
Forced : No
Text #6
ID : 9
Format : UTF-8
Codec ID : S_TEXT/UTF8
Codec ID/Info : UTF-8 Plain Text
Title : Sub-SDH COLORED
Language : English
Default : No
Forced : No
Menu
00:00:00.000 : en:00:00:00.000
00:04:50.415 : en:00:04:50.415
00:10:28.545 : en:00:10:28.545
00:16:40.583 : en:00:16:40.583
00:22:40.359 : en:00:22:40.359
00:27:40.450 : en:00:27:40.450
00:30:17.691 : en:00:30:17.691
00:36:45.203 : en:00:36:45.203
00:42:37.388 : en:00:42:37.388
00:49:54.742 : en:00:49:54.742
00:54:45.073 : en:00:54:45.073
00:57:48.548 : en:00:57:48.548
01:02:53.144 : en:01:02:53.144
01:06:53.968 : en:01:06:53.968
01:11:29.285 : en:01:11:29.285
01:18:36.921 : en:01:18:36.921
01:22:10.300 : en:01:22:10.300
01:25:32.669 : en:01:25:32.669
01:30:15.035 : en:01:30:15.035
01:33:21.095 : en:01:33:21.095
Скриншоты
Source vs Encode


Скачать

Скачать торрент!

Как скачивать? · Что такое торрент? · Рейтинг и ограничения

Сайт не распространяет и не хранит электронные версии произведений, а лишь предоставляет доступ к создаваемому пользователями каталогу ссылок на торрент-файлы, которые содержат только списки хеш-сумм

[Профиль] [ЛС]
Показать сообщения:    
Ответить на тему

Текущее время: Сегодня 07:05

Часовой пояс: GMT + 4



Вы не можете начинать темы
Вы не можете отвечать на сообщения
Вы не можете редактировать свои сообщения
Вы не можете удалять свои сообщения
Вы не можете голосовать в опросах
Вы не можете прикреплять файлы к сообщениям
Вы не можете скачивать файлы