Обманчивая память / Воспоминания о лжи / Solitary / A Memory of Lies (Грег Дероши / Greg Derochie) [2009, США, детектив, HDTV 1080i] MVO

Ответить на тему
 
Автор Сообщение

user ®

Стаж: 7 лет 7 месяцев

Сообщений: 20008

Пост Пост: #1 от 25-Апр-2015 15:48

[Цитировать]

Обманчивая память / Воспоминания о лжи / Solitary / A Memory of Lies Страна: США
Жанр: детектив
Год выпуска: 2009
Продолжительность: 01:27:21
Перевод: Профессиональный (многоголосый закадровый)
Cубтитры: нет
Оригинальная аудиодорожка: нет
Режиссер: Грег Дероши / Greg Derochie
В ролях: Б. Энтони Коэн, Кирон Эллиотт, Эмбер Джагер, Эндрю Джонсон, Далтон Либ, Брайан Спанглер-Кэмбелл, Кристин Салливан, Susan Tierny
Описание: Бедняга Сара не находит себе места: ей все время кажется, что за ней кто-то наблюдает, кроме того, она видит то, что больше никто другой не видит.
Девушка обращается за помощью к психиатру, который начинает лечить пациентку еще не проверенной методикой. Однако, следом за вымышленными кошмарами наступают настоящие: бесследно исчезает муж Сары.
Сэмпл: http://rusfolder.com/43530810
Кинопоиск: http://www.kinopoisk.ru/film/452288/

Тип релиза: HDTV 1080i
Контейнер: TS
Видео: AVC/H.264, 1920x1080 (16:9), 4719 Кбит/сек, 25.000 fps
Аудио: русский, MP2, 2ch, 48,0 КГц, 192 Кбит/сек
MediaInfo
Общее
Идентификатор : 1 (0x1)
Полное имя : C:\Documents and Settings\User\Рабочий стол\Воспоминания о лжи - Solitary [by Romanok 8691].ts
Формат : MPEG-TS
Размер файла : 3,15 Гбайт
Продолжительность : 1 ч. 27 м.
Режим общего битрейта : Переменный
Общий поток : 5169 Кбит/сек
Максимальный общий битрейт : 35,5 Мбит/сек
Видео
Идентификатор : 4113 (0x1011)
Идентификатор меню : 1 (0x1)
Формат : AVC
Формат/Информация : Advanced Video Codec
Профиль формата : Main@L4.0
Параметр CABAC формата : Да
Параметр ReFrames формата : 3 кадра
Идентификатор кодека : 27
Продолжительность : 1 ч. 27 м.
Вид битрейта : Переменный
Битрейт : 4719 Кбит/сек
Максимальный битрейт : 40,0 Мбит/сек
Ширина : 1920 пикселей
Высота : 1080 пикселей
Соотношение сторон : 16:9
Частота кадров : 25,000 кадров/сек
Стандарт вещания : Component
Цветовое пространство : YUV
Субдискретизация насыщенности : 4:2:0
Битовая глубина : 8 бит
Тип развёртки : Чересстрочная
Порядок развёртки : Верхнее поле первое
Бит/(Пиксели*Кадры) : 0.091
Размер потока : 2,88 Гбайт (91%)
colour_range : Limited
Аудио
Идентификатор : 4352 (0x1100)
Идентификатор меню : 1 (0x1)
Формат : MPEG Audio
Версия формата : Version 1
Профиль формата : Layer 2
Идентификатор кодека : 4
Продолжительность : 1 ч. 27 м.
Вид битрейта : Постоянный
Битрейт : 192 Кбит/сек
Каналы : 2 канала
Частота : 48,0 КГц
Метод сжатия : С потерями
Размер потока : 120 Мбайт (4%)
Язык : Russian
Скриншот с названием фильма Скриншоты
Скачать

Скачать торрент!

Как скачивать? · Что такое торрент? · Рейтинг и ограничения

Сайт не распространяет и не хранит электронные версии произведений, а лишь предоставляет доступ к создаваемому пользователями каталогу ссылок на торрент-файлы, которые содержат только списки хеш-сумм

[Профиль] [ЛС]
Показать сообщения:    
Ответить на тему

Текущее время: Сегодня 15:55

Часовой пояс: GMT + 4



Вы не можете начинать темы
Вы не можете отвечать на сообщения
Вы не можете редактировать свои сообщения
Вы не можете удалять свои сообщения
Вы не можете голосовать в опросах
Вы не можете прикреплять файлы к сообщениям
Вы не можете скачивать файлы