Давайте поохотимся / Let Us Prey (Брайан О’Мэлли / Brian O\'Malley) [2014, Великобритания, Ирландия, ужасы, мистика, BDRip 720p] DVO (den904 & DeadSno) + Original Eng

Ответить на тему
 
Автор Сообщение

user ®

Стаж: 7 лет 7 месяцев

Сообщений: 20008

Пост Пост: #1 от 25-Апр-2015 15:48

[Цитировать]

Давайте поохотимся
Let Us Prey
Страна: Великобритания, Ирландия
Жанр: Ужасы, мистика
Год выпуска: 2014
Продолжительность: 01:32:27
Перевод: Любительский (двухголосый закадровый) den904 & DeadSno

Cубтитры: нет
Оригинальная аудиодорожка: английский
Режиссер: Брайан О’Мэлли / Brian O'Malley
В ролях: Лиам Каннингэм, Поллианна МакИнтош, Брайан Ларкин, Ханна Стэнбридж, Дуглас Расселл
Описание: Загадочный незнакомец, которого задерживают в удаленном полицейском участке, постепенно овладевает умами заключенных и сотрудников участка.
Сэмпл: http://sendfile.su/1111588

Тип релиза: BDRip 720p
Контейнер: MKV
Видео: MPEG4 Video (H264) 1280x520 24fps 5247Kbps
Аудио 1: Dolby AC3 48000Hz stereo 192kbps Rus
Аудио 2: DTS 48000Hz 6ch 1536kbps Original Eng
MediaInfo
General
Unique ID : 183542841881768595910468630371036595919 (0x8A1510C64C8CD992928862FE07F086CF)
Complete name : D:\! temp\Let.Us.Prey.2014.L2.BDRip.720p.mkv
Format : Matroska
Format version : Version 2
File size : 4.49 GiB
Duration : 1h 32mn
Overall bit rate : 6 948 Kbps
Encoded date : UTC 2015-04-21 17:30:19
Writing application : mkvmerge v7.4.0 ('Circles') 64bit built on Dec 12 2014 12:19:56
Writing library : libebml v1.3.0 + libmatroska v1.4.1
_STATISTICS_WRITING_APP : mkvmerge v7.4.0 ('Circles') 64bit built on Dec 12 2014 12:19:56
_STATISTICS_WRITING_DATE_UTC : 2015-04-21 17:30:19
_STATISTICS_TAGS : BPS DURATION NUMBER_OF_FRAMES NUMBER_OF_BYTES
DURATION : 01:32:26.816000000
NUMBER_OF_FRAMES : 173338
NUMBER_OF_BYTES : 133123584
Video
ID : 1
Format : AVC
Format/Info : Advanced Video Codec
Format profile : High@L4.1
Format settings, CABAC : Yes
Format settings, ReFrames : 5 frames
Codec ID : V_MPEG4/ISO/AVC
Duration : 1h 32mn
Bit rate : 5 247 Kbps
Width : 1 280 pixels
Height : 520 pixels
Display aspect ratio : 2.462
Frame rate mode : Constant
Frame rate : 24.000 fps
Color space : YUV
Chroma subsampling : 4:2:0
Bit depth : 8 bits
Scan type : Progressive
Bits/(Pixel*Frame) : 0.328
Stream size : 3.30 GiB (74%)
Writing library : x264 core 146 r2538 121396c
Encoding settings : cabac=1 / ref=5 / deblock=1:0:0 / analyse=0x3:0x113 / me=umh / subme=8 / psy=1 / psy_rd=1.00:0.00 / mixed_ref=1 / me_range=16 / chroma_me=1 / trellis=1 / 8x8dct=1 / cqm=0 / deadzone=21,11 / fast_pskip=0 / chroma_qp_offset=-2 / threads=12 / lookahead_threads=2 / sliced_threads=0 / nr=0 / decimate=1 / interlaced=0 / bluray_compat=0 / constrained_intra=0 / bframes=3 / b_pyramid=2 / b_adapt=2 / b_bias=0 / direct=3 / weightb=1 / open_gop=0 / weightp=2 / keyint=250 / keyint_min=24 / scenecut=40 / intra_refresh=0 / rc_lookahead=50 / rc=2pass / mbtree=1 / bitrate=5247 / ratetol=1.0 / qcomp=0.60 / qpmin=0 / qpmax=69 / qpstep=4 / cplxblur=20.0 / qblur=0.5 / ip_ratio=1.40 / aq=1:1.00
Language : English
Default : Yes
Forced : No
_STATISTICS_WRITING_APP : mkvmerge v7.4.0 ('Circles') 64bit built on Dec 12 2014 12:19:56
_STATISTICS_WRITING_DATE_UTC : 2015-04-21 17:30:19
_STATISTICS_TAGS : BPS DURATION NUMBER_OF_FRAMES NUMBER_OF_BYTES
DURATION : 01:32:26.917000000
NUMBER_OF_FRAMES : 133126
NUMBER_OF_BYTES : 3636515929
Audio #1
ID : 2
Format : AC-3
Format/Info : Audio Coding 3
Mode extension : CM (complete main)
Format settings, Endianness : Big
Codec ID : A_AC3
Duration : 1h 32mn
Bit rate mode : Constant
Bit rate : 192 Kbps
Channel(s) : 2 channels
Channel positions : Front: L R
Sampling rate : 48.0 KHz
Bit depth : 16 bits
Compression mode : Lossy
Stream size : 127 MiB (3%)
Default : Yes
Forced : No
Audio #2
ID : 3
Format : DTS
Format/Info : Digital Theater Systems
Mode : 16
Format settings, Endianness : Big
Codec ID : A_DTS
Duration : 1h 32mn
Bit rate mode : Constant
Bit rate : 1 509 Kbps
Channel(s) : 6 channels
Channel positions : Front: L C R, Side: L R, LFE
Sampling rate : 48.0 KHz
Bit depth : 24 bits
Compression mode : Lossy
Stream size : 998 MiB (22%)
Language : English
Default : No
Forced : No
Menu
00:00:00.000 : en:00:00:00.000
00:07:33.917 : en:00:07:33.917
00:14:02.917 : en:00:14:02.917
00:20:20.917 : en:00:20:20.917
00:26:37.917 : en:00:26:37.917
00:35:12.208 : en:00:35:12.208
00:43:55.292 : en:00:43:55.292
00:50:28.917 : en:00:50:28.917
00:58:03.625 : en:00:58:03.625
01:04:50.417 : en:01:04:50.417
01:12:10.625 : en:01:12:10.625
01:19:57.917 : en:01:19:57.917
01:28:22.583 : en:01:28:22.583
Скриншоты
Скачать

Скачать торрент!

Как скачивать? · Что такое торрент? · Рейтинг и ограничения

Сайт не распространяет и не хранит электронные версии произведений, а лишь предоставляет доступ к создаваемому пользователями каталогу ссылок на торрент-файлы, которые содержат только списки хеш-сумм

[Профиль] [ЛС]
Показать сообщения:    
Ответить на тему

Текущее время: Сегодня 08:28

Часовой пояс: GMT + 4



Вы не можете начинать темы
Вы не можете отвечать на сообщения
Вы не можете редактировать свои сообщения
Вы не можете удалять свои сообщения
Вы не можете голосовать в опросах
Вы не можете прикреплять файлы к сообщениям
Вы не можете скачивать файлы