Давайте поохотимся / Let Us Prey (Брайан О’Мэлли / Brian O\'Malley) [2014, Великобритания, Ирландия, Ужасы, мистика, BDRip 1080p] DVO (den904 & DeadSno) + Sub Eng + Original Eng

Ответить на тему
 
Автор Сообщение

user ®

Стаж: 7 лет 7 месяцев

Сообщений: 20008

Пост Пост: #1 от 25-Апр-2015 00:18

[Цитировать]

Давайте поохотимся
Let Us Prey
Страна: Великобритания, Ирландия
Жанр: Ужасы, мистика
Год выпуска: 2014
Продолжительность: 01:32:27
Перевод: Любительский (двухголосый закадровый) den904 & DeadSno

Cубтитры: английские
Оригинальная аудиодорожка: английский
Режиссер: Брайан О’Мэлли / Brian O'Malley
В ролях: Лиам Каннингэм, Поллианна МакИнтош, Брайан Ларкин, Ханна Стэнбридж, Дуглас Расселл
Описание: Загадочный незнакомец, которого задерживают в удаленном полицейском участке, постепенно овладевает умами заключенных и сотрудников участка.
Сэмпл: http://sendfile.su/1110932

Тип релиза: BDRip 1080p
Контейнер: MKV
Видео: MPEG4 Video (H264) 1920x784 24fps 8635Kbps
Аудио 1: Dolby AC3 48000Hz stereo 192kbps Rus
Аудио 2: Dolby AC3 48000Hz 6ch 640kbps Original Eng
Формат субтитров: softsub (SRT)
MediaInfo
General
Unique ID : 190661058102250979929624615739708729760 (0x8F6FFBEE28B45DA5804AE071B038E9A0)
Complete name :  Let Us Prey. (2014) BDRip 1080p.mkv
Format : Matroska
Format version : Version 2
File size : 6.11 GiB
Duration : 1h 32mn
Overall bit rate : 9 468 Kbps
Movie name : Let Us Prey. 2014
Encoded date : UTC 2015-04-22 20:28:36
Writing application : mkvmerge v5.8.0 ('No Sleep / Pillow') built on Sep 2 2012 15:37:04
Writing library : libebml v1.2.3 + libmatroska v1.3.0
Video
ID : 1
Format : AVC
Format/Info : Advanced Video Codec
Format profile : High@L4.1
Format settings, CABAC : Yes
Format settings, ReFrames : 4 frames
Codec ID : V_MPEG4/ISO/AVC
Duration : 1h 32mn
Bit rate : 8 635 Kbps
Width : 1 920 pixels
Height : 784 pixels
Display aspect ratio : 2.40:1
Frame rate mode : Constant
Frame rate : 24.000 fps
Color space : YUV
Chroma subsampling : 4:2:0
Bit depth : 8 bits
Scan type : Progressive
Bits/(Pixel*Frame) : 0.239
Stream size : 5.46 GiB (89%)
Title : RARBG
Writing library : x264 core 146 r2538 121396c
Encoding settings : cabac=1 / ref=4 / deblock=1:0:0 / analyse=0x3:0x113 / me=umh / subme=8 / psy=1 / psy_rd=1.00:0.00 / mixed_ref=1 / me_range=16 / chroma_me=1 / trellis=1 / 8x8dct=1 / cqm=0 / deadzone=21,11 / fast_pskip=0 / chroma_qp_offset=-2 / threads=12 / lookahead_threads=2 / sliced_threads=0 / nr=0 / decimate=1 / interlaced=0 / bluray_compat=0 / constrained_intra=0 / bframes=3 / b_pyramid=2 / b_adapt=2 / b_bias=0 / direct=3 / weightb=1 / open_gop=0 / weightp=2 / keyint=250 / keyint_min=24 / scenecut=40 / intra_refresh=0 / rc_lookahead=50 / rc=2pass / mbtree=1 / bitrate=8635 / ratetol=1.0 / qcomp=0.60 / qpmin=0 / qpmax=69 / qpstep=4 / cplxblur=20.0 / qblur=0.5 / ip_ratio=1.40 / aq=1:1.00
Language : English
Default : Yes
Forced : No
Audio #1
ID : 2
Format : AC-3
Format/Info : Audio Coding 3
Mode extension : CM (complete main)
Format settings, Endianness : Big
Codec ID : A_AC3
Duration : 1h 32mn
Bit rate mode : Constant
Bit rate : 192 Kbps
Channel(s) : 2 channels
Channel positions : Front: L R
Sampling rate : 48.0 KHz
Bit depth : 16 bits
Compression mode : Lossy
Stream size : 127 MiB (2%)
Title : L2 | den904 & DeadSno
Language : Russian
Default : Yes
Forced : No
Audio #2
ID : 3
Format : AC-3
Format/Info : Audio Coding 3
Mode extension : CM (complete main)
Format settings, Endianness : Big
Codec ID : A_AC3
Duration : 1h 32mn
Bit rate mode : Constant
Bit rate : 640 Kbps
Channel(s) : 6 channels
Channel positions : Front: L C R, Side: L R, LFE
Sampling rate : 48.0 KHz
Bit depth : 16 bits
Compression mode : Lossy
Stream size : 423 MiB (7%)
Title : Original
Language : English
Default : No
Forced : No
Text
ID : 4
Format : UTF-8
Codec ID : S_TEXT/UTF8
Codec ID/Info : UTF-8 Plain Text
Title : Full
Language : English
Default : No
Forced : No
Menu
00:00:00.000 : en:00:00:00.000
00:07:33.917 : en:00:07:33.917
00:14:02.917 : en:00:14:02.917
00:20:20.917 : en:00:20:20.917
00:26:37.917 : en:00:26:37.917
00:35:12.208 : en:00:35:12.208
00:43:55.292 : en:00:43:55.292
00:50:28.917 : en:00:50:28.917
00:58:03.625 : en:00:58:03.625
01:04:50.417 : en:01:04:50.417
01:12:10.625 : en:01:12:10.625
01:19:57.917 : en:01:19:57.917
01:28:22.583 : en:01:28:22.583
Скриншоты
Скачать

Скачать торрент!

Как скачивать? · Что такое торрент? · Рейтинг и ограничения

Сайт не распространяет и не хранит электронные версии произведений, а лишь предоставляет доступ к создаваемому пользователями каталогу ссылок на торрент-файлы, которые содержат только списки хеш-сумм

[Профиль] [ЛС]
Показать сообщения:    
Ответить на тему

Текущее время: Сегодня 06:09

Часовой пояс: GMT + 4



Вы не можете начинать темы
Вы не можете отвечать на сообщения
Вы не можете редактировать свои сообщения
Вы не можете удалять свои сообщения
Вы не можете голосовать в опросах
Вы не можете прикреплять файлы к сообщениям
Вы не можете скачивать файлы