Врожденный порок / Inherent Vice (Пол Томас Андерсон / Paul Thomas Anderson) [2014, США, Драма, мелодрама, комедия, криминал, детектив, BDRip 720p] MVO + Sub Rus, Eng + Original Eng

Ответить на тему
 
Автор Сообщение

user ®

Стаж: 7 лет 7 месяцев

Сообщений: 20008

Пост Пост: #1 от 24-Апр-2015 21:12

[Цитировать]

--Врожденный порок / Inherent Vice-
Страна: США
Студия: Ghoulardi Film Company, IAC Films, Warner Bros. Pictures
Жанр: Драма, мелодрама, комедия, криминал, детектив
Год выпуска: 2014
Продолжительность: 02:28:40-Перевод: Профессиональный (многоголосый закадровый) лицензия
Cубтитры: Русские (форсированные), Русские, Английский (полные, SDH)
Оригинальная аудиодорожка: английский-Режиссер: Пол Томас Андерсон / Paul Thomas Anderson-В ролях: Хоакин Феникс, Джош Бролин, Оуэн Уилсон, Кэтрин Уотерстон, Риз Уизерспун, Бенисио Дель Торо, Джена Мэлоун, Майя Рудольф, Мартин Шорт, Джоэнна Ньюсом
Описание: Эта история переполнена таинственностью. События происходят в знаменитом Лос - Анджелесе в конце шестидесятых годов. Главный герой является талантливым частным детективом, его зовут Ларри Спортелло. Сыщик занимается сложнейшими делами, распутывает тяжелейшие загадки. с легкостью находит жестоких убийц. маньяков и опаснейших грабителей. Однако, он ведет пагубный образ жизни. У него есть одно, но очень вредное пристрастие. которое вот - вот сгубит Ларри - большая тяга к марихуане. В это же время Спортелло разыскивает свою бывшую даму сердца. Однако, вскоре экс - возлюбленная весьма неожиданно пропадает со своим теперешним молодым человеком. Детектив приходит к заключению, что таинственное исчезновение имеет связь с другими делами. которые он расследует в данный момент. Ему предстоит взяться за очередное дело, переполненное подозрительными фактами. Придется заново потрудиться, чтобы разыскать девицу, пропавшую явно не без чужой помощи.-| Сэмпл | IMDB | КиноПоиск |
-Качество видео: BDRip 720p |Revenge @ VietHD|
Формат видео: MKV
Видео: x.264, NTSC 23.976, 1280x692, 12200 кбит/с
Аудио: Русский AC3, 6ch (L, C, R, Ls, Rs +LFE), 640 кбит/с |Лицензия, Blu-ray EUR|
Аудио: Английский AC3, 6ch (L, C, R, Ls, Rs +LFE), 640 кбит/с

MediaInfo
General
Unique ID : 241710854075044067400196207862560938042 (0xB5D7D1325BAE6FED9BC4B76EE235583A)
Complete name : C:\Inherent.Vice.2014.720p.BluRay.x264.VietHD.Rus.Eng.ac3.VietHD.0dayTeam.mkv
Format : Matroska
Format version : Version 4 / Version 2
File size : 14.3 GiB
Duration : 2h 28mn
Overall bit rate : 13.8 Mbps
Encoded date : UTC 2015-04-21 19:56:15
Writing application : mkvmerge v7.3.0 ('Nouages') 64bit built on Oct 22 2014 18:53:34
Writing library : libebml v1.3.0 + libmatroska v1.4.1
_STATISTICS_WRITING_APP : mkvmerge v7.3.0 ('Nouages') 64bit built on Oct 22 2014 18:53:34
_STATISTICS_WRITING_DATE_UTC : 2015-04-21 19:56:15
_STATISTICS_TAGS : BPS DURATION NUMBER_OF_FRAMES NUMBER_OF_BYTES
DURATION : 02:28:13.385000000
NUMBER_OF_FRAMES : 2011
NUMBER_OF_BYTES : 113213
Video
ID : 1
Format : AVC
Format/Info : Advanced Video Codec
Format profile : High@L4.1
Format settings, CABAC : Yes
Format settings, ReFrames : 9 frames
Codec ID : V_MPEG4/ISO/AVC
Duration : 2h 28mn
Bit rate : 12.2 Mbps
Width : 1 280 pixels
Height : 692 pixels
Display aspect ratio : 1.851
Frame rate : 23.976 fps
Color space : YUV
Chroma subsampling : 4:2:0
Bit depth : 8 bits
Scan type : Progressive
Bits/(Pixel*Frame) : 0.575
Stream size : 12.7 GiB (89%)
Writing library : x264 core 146 r2538kMod 121396c
Encoding settings : cabac=1 / ref=9 / deblock=1:-3:-3 / analyse=0x3:0x133 / me=umh / subme=10 / psy=1 / fade_compensate=0.00 / psy_rd=1.25:0.00 / mixed_ref=1 / me_range=16 / chroma_me=1 / trellis=2 / 8x8dct=1 / cqm=0 / deadzone=21,11 / fast_pskip=1 / chroma_qp_offset=-2 / threads=12 / lookahead_threads=3 / sliced_threads=0 / nr=0 / decimate=1 / interlaced=0 / bluray_compat=0 / constrained_intra=0 / fgo=0 / bframes=10 / b_pyramid=2 / b_adapt=2 / b_bias=0 / direct=3 / weightb=1 / open_gop=0 / weightp=2 / keyint=250 / keyint_min=23 / scenecut=40 / intra_refresh=0 / rc_lookahead=60 / rc=crf / mbtree=0 / crf=16.0000 / qcomp=0.60 / qpmin=0 / qpmax=69 / qpstep=4 / vbv_maxrate=62500 / vbv_bufsize=78125 / crf_max=0.0 / nal_hrd=none / filler=0 / ip_ratio=1.20 / pb_ratio=1.10 / aq=3:0.55
Language : English
_STATISTICS_WRITING_APP : mkvmerge v7.3.0 ('Nouages') 64bit built on Oct 22 2014 18:53:34
_STATISTICS_WRITING_DATE_UTC : 2015-04-21 19:56:15
_STATISTICS_TAGS : BPS DURATION NUMBER_OF_FRAMES NUMBER_OF_BYTES
DURATION : 02:28:43.457000000
NUMBER_OF_FRAMES : 213949
NUMBER_OF_BYTES : 13921417503
Matrix coefficients : BT.709-5, BT.1361, IEC 61966-2-4 709, SMPTE RP177
Audio #1
ID : 2
Format : AC-3
Format/Info : Audio Coding 3
Mode extension : CM (complete main)
Codec ID : A_AC3
Duration : 2h 28mn
Bit rate mode : Constant
Bit rate : 640 Kbps
Channel(s) : 6 channels
Channel positions : Front: L C R, Side: L R, LFE
Sampling rate : 48.0 KHz
Bit depth : 16 bits
Compression mode : Lossy
Stream size : 681 MiB (5%)
Title : Лицензия, Blu-ray EUR
Language : Russian
Audio #2
ID : 3
Format : AC-3
Format/Info : Audio Coding 3
Mode extension : CM (complete main)
Codec ID : A_AC3
Duration : 2h 28mn
Bit rate mode : Constant
Bit rate : 640 Kbps
Channel(s) : 6 channels
Channel positions : Front: L C R, Side: L R, LFE
Sampling rate : 48.0 KHz
Bit depth : 16 bits
Compression mode : Lossy
Stream size : 681 MiB (5%)
Language : English
Text #1
ID : 4
Format : UTF-8
Codec ID : S_TEXT/UTF8
Codec ID/Info : UTF-8 Plain Text
Title : forced
Language : Russian
Text #2
ID : 5
Format : UTF-8
Codec ID : S_TEXT/UTF8
Codec ID/Info : UTF-8 Plain Text
Language : Russian
Text #3
ID : 6
Format : UTF-8
Codec ID : S_TEXT/UTF8
Codec ID/Info : UTF-8 Plain Text
Language : English
Text #4
ID : 7
Format : UTF-8
Codec ID : S_TEXT/UTF8
Codec ID/Info : UTF-8 Plain Text
Title : SDH
Language : English
Menu
00:00:00.000 : en:00:00:00.000
00:15:56.080 : en:00:15:56.080
00:26:45.145 : en:00:26:45.145
00:42:53.196 : en:00:42:53.196
00:52:26.435 : en:00:52:26.435
01:12:08.157 : en:01:12:08.157
01:30:30.592 : en:01:30:30.592
01:39:08.067 : en:01:39:08.067
01:51:55.167 : en:01:51:55.167
02:11:17.495 : en:02:11:17.495
x264
x264 [info]: frame I:1174 Avg QP:14.69 size:142839
x264 [info]: frame P:37652 Avg QP:15.98 size: 85824
x264 [info]: frame B:175123 Avg QP:16.81 size: 60085
x264 [info]: consecutive B-frames: 0.8% 0.8% 1.8% 12.7% 15.1% 36.6% 11.7%
13.0% 4.5% 1.5% 1.5%
encoded 213949 frames, 8.47 fps, 12480.74 kb/s, duration 7:00:47.72
Скриншоты Cравнения
Скачать

Скачать торрент!

Как скачивать? · Что такое торрент? · Рейтинг и ограничения

Сайт не распространяет и не хранит электронные версии произведений, а лишь предоставляет доступ к создаваемому пользователями каталогу ссылок на торрент-файлы, которые содержат только списки хеш-сумм

[Профиль] [ЛС]
Показать сообщения:    
Ответить на тему

Текущее время: Сегодня 05:09

Часовой пояс: GMT + 4



Вы не можете начинать темы
Вы не можете отвечать на сообщения
Вы не можете редактировать свои сообщения
Вы не можете удалять свои сообщения
Вы не можете голосовать в опросах
Вы не можете прикреплять файлы к сообщениям
Вы не можете скачивать файлы