Цирюльник / The Barber (Бэйзел Оуис / Basel Owies) [2014, США, триллер, BDRip 1080p] VO (PashaUP) + Sub Eng + Original Eng

Ответить на тему
 
Автор Сообщение

user ®

Стаж: 7 лет 7 месяцев

Сообщений: 20008

Пост Пост: #1 от 24-Апр-2015 21:12

[Цитировать]

Цирюльник / The Barber
Страна: США
Жанр: триллер
Год выпуска: 2014
Продолжительность: 01:30:13
Перевод: Одноголосый закадровый PashaUP
Cубтитры: английские
Оригинальная аудиодорожка: английский
Режиссер: Бэйзел Оуис / Basel Owies
В ролях: Скотт Гленн, Стивен Тоболовски, Джессика Лу, Кристен Хагер, Лидия Хёрст, Крис Кой, Оливия Тейлор Дадли, Максимино Арсиньега, Тим Де Зарн, Табита Эллис
Описание: В тихом маленьком городке живет обычный, ничем не примечательный старик. У него своя парикмахерская, он добропорядочный гражданин, его уважают и ценят окружающие. Но однажды его тихой и размеренной жизни приходит конец. Молодой человек, представившийся Джоном Лару, убежден, что парикмахер — никто иной, как серийный убийца, убивший 17 молодых женщин, закапывая их заживо.

Сэмпл: http://multi-up.com/1045111
Тип релиза: BDRip 1080p
Контейнер: MKV
Видео: MPEG4 Video (H264) 1920x804 23.976fps 11.0 Mbps
Аудио: Russian AC-3 / 6 ch / 48.0 KHz / 384 Kbps / Павел Морозов aka PashaUp
Аудио 2: English DTS / 6 ch / 48.0 KHz / 1 509 Kbps Original
Формат субтитров: softsub (SRT)

MediaInfo
General
Unique ID : 186132019527286519236489087464188173387 (0x8C07B916A378F8BEB0646A3FF3985C4B)
Complete name : C:\Users\Вика\Desktop\The.Barber.2014.1080p.BDRip.mkv
Format : Matroska
Format version : Version 4 / Version 2
File size : 8.20 GiB
Duration : 2h 4mn
Overall bit rate : 9 448 Kbps
Encoded date : UTC 2015-04-23 05:06:18
Writing application : mkvmerge v7.4.0 ('Circles') 64bit built on Dec 12 2014 12:19:56
Writing library : libebml v1.3.0 + libmatroska v1.4.1
_STATISTICS_WRITING_APP : mkvmerge v7.4.0 ('Circles') 64bit built on Dec 12 2014 12:19:56
_STATISTICS_WRITING_DATE_UTC : 2015-04-23 05:06:18
_STATISTICS_TAGS : BPS DURATION NUMBER_OF_FRAMES NUMBER_OF_BYTES
DURATION : 01:24:53.020000000
NUMBER_OF_FRAMES : 912
NUMBER_OF_BYTES : 36245
Video
ID : 1
Format : AVC
Format/Info : Advanced Video Codec
Format profile : High@L4.1
Format settings, CABAC : Yes
Format settings, ReFrames : 5 frames
Codec ID : V_MPEG4/ISO/AVC
Duration : 2h 4mn
Bit rate : 7 367 Kbps
Nominal bit rate : 11.0 Mbps
Width : 1 920 pixels
Height : 804 pixels
Display aspect ratio : 2.40:1
Frame rate mode : Constant
Frame rate : 23.976 fps
Color space : YUV
Chroma subsampling : 4:2:0
Bit depth : 8 bits
Scan type : Progressive
Bits/(Pixel*Frame) : 0.199
Stream size : 6.39 GiB (78%)
Writing library : x264 core 142 r2479 dd79a61
Encoding settings : cabac=1 / ref=5 / deblock=1:-3:-3 / analyse=0x3:0x133 / me=umh / subme=11 / psy=1 / psy_rd=1.05:0.10 / mixed_ref=1 / me_range=48 / chroma_me=1 / trellis=2 / 8x8dct=1 / cqm=0 / deadzone=21,11 / fast_pskip=0 / chroma_qp_offset=-3 / threads=12 / lookahead_threads=2 / sliced_threads=0 / nr=0 / decimate=1 / interlaced=0 / bluray_compat=0 / constrained_intra=0 / bframes=8 / b_pyramid=2 / b_adapt=2 / b_bias=0 / direct=3 / weightb=1 / open_gop=0 / weightp=2 / keyint=250 / keyint_min=23 / scenecut=40 / intra_refresh=0 / rc_lookahead=80 / rc=2pass / mbtree=1 / bitrate=11000 / ratetol=1.0 / qcomp=0.75 / qpmin=0 / qpmax=69 / qpstep=4 / cplxblur=20.0 / qblur=0.5 / vbv_maxrate=38000 / vbv_bufsize=30000 / nal_hrd=none / filler=0 / ip_ratio=1.40 / aq=1:0.75
Language : English
Default : Yes
Forced : No
_STATISTICS_WRITING_APP : mkvmerge v7.4.0 ('Circles') 64bit built on Dec 12 2014 12:19:56
_STATISTICS_WRITING_DATE_UTC : 2015-04-23 05:06:18
_STATISTICS_TAGS : BPS DURATION NUMBER_OF_FRAMES NUMBER_OF_BYTES
DURATION : 01:30:13.492000000
NUMBER_OF_FRAMES : 129794
NUMBER_OF_BYTES : 7423861312
Audio #1
ID : 2
Format : AC-3
Format/Info : Audio Coding 3
Mode extension : CM (complete main)
Format settings, Endianness : Big
Codec ID : A_AC3
Duration : 2h 4mn
Bit rate mode : Constant
Bit rate : 384 Kbps
Channel(s) : 6 channels
Channel positions : Front: L C R, Side: L R, LFE
Sampling rate : 48.0 KHz
Bit depth : 16 bits
Compression mode : Lossy
Stream size : 341 MiB (4%)
Title : VO (PashaUP)
Language : Russian
Default : Yes
Forced : No
Audio #2
ID : 3
Format : DTS
Format/Info : Digital Theater Systems
Mode : 16
Format settings, Endianness : Big
Codec ID : A_DTS
Duration : 2h 4mn
Bit rate mode : Constant
Bit rate : 1 509 Kbps
Channel(s) : 6 channels
Channel positions : Front: L C R, Side: L R, LFE
Sampling rate : 48.0 KHz
Bit depth : 24 bits
Compression mode : Lossy
Stream size : 1.31 GiB (16%)
Title : English
Language : English
Default : No
Forced : No
Text
ID : 4
Format : UTF-8
Codec ID : S_TEXT/UTF8
Codec ID/Info : UTF-8 Plain Text
Language : English
Default : No
Forced : No
Menu
00:00:00.000 : en:00:00:00.000
00:08:31.261 : en:00:08:31.261
00:16:21.689 : en:00:16:21.689
00:24:33.055 : en:00:24:33.055
00:32:10.804 : en:00:32:10.804
00:39:26.573 : en:00:39:26.573
00:48:14.058 : en:00:48:14.058
00:56:10.409 : en:00:56:10.409
01:02:09.100 : en:01:02:09.100
01:09:50.645 : en:01:09:50.645
01:15:35.656 : en:01:15:35.656
01:25:28.040 : en:01:25:28.040
Скриншоты
Скачать

Скачать торрент!

Как скачивать? · Что такое торрент? · Рейтинг и ограничения

Сайт не распространяет и не хранит электронные версии произведений, а лишь предоставляет доступ к создаваемому пользователями каталогу ссылок на торрент-файлы, которые содержат только списки хеш-сумм

[Профиль] [ЛС]
Показать сообщения:    
Ответить на тему

Текущее время: Сегодня 20:03

Часовой пояс: GMT + 4



Вы не можете начинать темы
Вы не можете отвечать на сообщения
Вы не можете редактировать свои сообщения
Вы не можете удалять свои сообщения
Вы не можете голосовать в опросах
Вы не можете прикреплять файлы к сообщениям
Вы не можете скачивать файлы