Врожденный порок / Inherent Vice (Пол Томас Андерсон / Paul Thomas Anderson) [2014, США, Драма, мелодрама, комедия, криминал, детектив, BDRip 1080p] MVO + Sub Rus, Eng + Original Eng

Ответить на тему
 
Автор Сообщение

user ®

Стаж: 7 лет 7 месяцев

Сообщений: 20008

Пост Пост: #1 от 24-Апр-2015 21:12

[Цитировать]

--Врожденный порок / Inherent Vice-
Страна: США
Студия: Ghoulardi Film Company, IAC Films, Warner Bros. Pictures
Жанр: Драма, мелодрама, комедия, криминал, детектив
Год выпуска: 2014
Продолжительность: 02:28:40-Перевод: Профессиональный (многоголосый закадровый) лицензия
Cубтитры: Русские (форсированные), Русские, Английский (полные, SDH)
Оригинальная аудиодорожка: английский-Режиссер: Пол Томас Андерсон / Paul Thomas Anderson-В ролях: Хоакин Феникс, Джош Бролин, Оуэн Уилсон, Кэтрин Уотерстон, Риз Уизерспун, Бенисио Дель Торо, Джена Мэлоун, Майя Рудольф, Мартин Шорт, Джоэнна Ньюсом
Описание: Эта история переполнена таинственностью. События происходят в знаменитом Лос - Анджелесе в конце шестидесятых годов. Главный герой является талантливым частным детективом, его зовут Ларри Спортелло. Сыщик занимается сложнейшими делами, распутывает тяжелейшие загадки. с легкостью находит жестоких убийц. маньяков и опаснейших грабителей. Однако, он ведет пагубный образ жизни. У него есть одно, но очень вредное пристрастие. которое вот - вот сгубит Ларри - большая тяга к марихуане. В это же время Спортелло разыскивает свою бывшую даму сердца. Однако, вскоре экс - возлюбленная весьма неожиданно пропадает со своим теперешним молодым человеком. Детектив приходит к заключению, что таинственное исчезновение имеет связь с другими делами. которые он расследует в данный момент. Ему предстоит взяться за очередное дело, переполненное подозрительными фактами. Придется заново потрудиться, чтобы разыскать девицу, пропавшую явно не без чужой помощи.-| Сэмпл | IMDB | КиноПоиск |
-Качество видео: BDRip 1080p |Semih158 @ EbP|
Формат видео: MKV
Видео: x.264, NTSC 23.976, 1920x1038, 18200 кбит/с
Аудио: Русский AC3, 6ch (L, C, R, Ls, Rs +LFE), 640 кбит/с |Лицензия, Blu-ray EUR|
Аудио: Английский DTS, 6ch (L, C, R, Ls, Rs +LFE), 1536 кбит/с

Награды
Оскар, 2015 год
Номинации (2):
Лучший адаптированный сценарий
Лучшие костюмы
Золотой глобус, 2015 год
Номинации (1):
Лучшая мужская роль (комедия или мюзикл) (Хоакин Феникс)
MediaInfo
General
Unique ID : 218548796177676255679693518954286430146 (0xA46AF79300C109DB99A6756ACADA37C2)
Complete name : E:\Inherent.Vice.2014.1080p.BluRay.x264.Rus.Eng.ac3.dts.EbP.0dayTeam.mkv
Format : Matroska
Format version : Version 4 / Version 2
File size : 21.5 GiB
Duration : 2h 28mn
Overall bit rate : 20.7 Mbps
Movie name : EbP
Encoded date : UTC 2015-04-23 09:06:01
Writing application : mkvmerge v7.3.0 ('Nouages') 64bit built on Oct 22 2014 18:53:34
Writing library : libebml v1.3.0 + libmatroska v1.4.1
_STATISTICS_WRITING_APP : mkvmerge v7.3.0 ('Nouages') 64bit built on Oct 22 2014 18:53:34
_STATISTICS_WRITING_DATE_UTC : 2015-04-23 09:06:01
_STATISTICS_TAGS : BPS DURATION NUMBER_OF_FRAMES NUMBER_OF_BYTES
DURATION : 02:28:44.459000000
NUMBER_OF_FRAMES : 836668
NUMBER_OF_BYTES : 1683376016
Video
ID : 1
Format : AVC
Format/Info : Advanced Video Codec
Format profile : High@L4.1
Format settings, CABAC : Yes
Format settings, ReFrames : 4 frames
Codec ID : V_MPEG4/ISO/AVC
Duration : 2h 28mn
Bit rate : 18.2 Mbps
Width : 1 920 pixels
Height : 1 038 pixels
Display aspect ratio : 1.850
Frame rate : 23.976 fps
Color space : YUV
Chroma subsampling : 4:2:0
Bit depth : 8 bits
Scan type : Progressive
Bits/(Pixel*Frame) : 0.380
Stream size : 18.9 GiB (88%)
Writing library : x264 core 146 r0+2584 6cf85c6 t_mod_Custom [8-bit@all ]
Encoding settings : cabac=1 / ref=4 / deblock=1:-3:-3 / analyse=0x3:0x113 / me=tesa / subme=10 / psy=1 / fade_compensate=0.00 / psy_rd=1.00:0.00 / mixed_ref=1 / me_range=24 / chroma_me=1 / trellis=2 / 8x8dct=1 / cqm=0 / deadzone=21,11 / fast_pskip=0 / chroma_qp_offset=-2 / threads=12 / lookahead_threads=2 / sliced_threads=0 / nr=0 / decimate=0 / interlaced=0 / bluray_compat=0 / constrained_intra=0 / fgo=0 / bframes=9 / b_pyramid=2 / b_adapt=2 / b_bias=0 / direct=3 / weightb=1 / open_gop=0 / weightp=2 / keyint=250 / keyint_min=23 / scenecut=40 / intra_refresh=0 / rc_lookahead=40 / rc=crf / mbtree=0 / crf=18.8000 / qcomp=0.70 / qpmin=0:0:0 / qpmax=69:69:69 / qpstep=4 / vbv_maxrate=62500 / vbv_bufsize=78125 / crf_max=0.0 / nal_hrd=none / filler=0 / ip_ratio=1.30 / pb_ratio=1.20 / aq=3:0.80 / aq-sensitivity=10.00 / aq-factor=1.00:1.00:1.00 / aq2=0 / aq3=0
Language : English
DURATION : 02:28:43.457000000
NUMBER_OF_FRAMES : 213949
NUMBER_OF_BYTES : 20729009812
_STATISTICS_WRITING_APP : mkvmerge v7.3.0 ('Nouages') 64bit built on Oct 22 2014 18:53:34
_STATISTICS_WRITING_DATE_UTC : 2015-04-23 09:06:01
_STATISTICS_TAGS : BPS DURATION NUMBER_OF_FRAMES NUMBER_OF_BYTES
Audio #1
ID : 2
Format : AC-3
Format/Info : Audio Coding 3
Mode extension : CM (complete main)
Codec ID : A_AC3
Duration : 2h 28mn
Bit rate mode : Constant
Bit rate : 640 Kbps
Channel(s) : 6 channels
Channel positions : Front: L C R, Side: L R, LFE
Sampling rate : 48.0 KHz
Bit depth : 16 bits
Compression mode : Lossy
Stream size : 681 MiB (3%)
Title : Лицензия, Blu-ray EUR
Language : Russian
Audio #2
ID : 3
Format : DTS
Format/Info : Digital Theater Systems
Codec ID : A_DTS
Duration : 2h 28mn
Bit rate mode : Constant
Bit rate : 1 510 Kbps
Channel(s) : 6 channels
Channel positions : Front: L C R, Side: L R, LFE
Sampling rate : 48.0 KHz
Bit depth : 24 bits
Compression mode : Lossy
Stream size : 1.57 GiB (7%)
Language : English
Text #1
ID : 4
Format : UTF-8
Codec ID : S_TEXT/UTF8
Codec ID/Info : UTF-8 Plain Text
Title : forced
Language : Russian
Text #2
ID : 5
Format : UTF-8
Codec ID : S_TEXT/UTF8
Codec ID/Info : UTF-8 Plain Text
Language : Russian
Text #3
ID : 6
Format : UTF-8
Codec ID : S_TEXT/UTF8
Codec ID/Info : UTF-8 Plain Text
Language : English
Text #4
ID : 7
Format : UTF-8
Codec ID : S_TEXT/UTF8
Codec ID/Info : UTF-8 Plain Text
Title : SDH
Language : English
Menu
00:00:00.000 : en:00:00:00.000
00:15:56.080 : en:00:15:56.080
00:26:45.145 : en:00:26:45.145
00:42:53.196 : en:00:42:53.196
00:52:26.435 : en:00:52:26.435
01:12:08.157 : en:01:12:08.157
01:30:30.592 : en:01:30:30.592
01:39:08.067 : en:01:39:08.067
01:51:55.167 : en:01:51:55.167
02:11:17.495 : en:02:11:17.495
x264
x264 [info]: frame I:1122 Avg QP:16.31 size:220414
x264 [info]: frame P:37417 Avg QP:17.54 size:146273
x264 [info]: frame B:175410 Avg QP:19.18 size: 85563
x264 [info]: consecutive B-frames: 0.8% 0.6% 1.4% 15.9% 13.5% 27.3% 14.0% 21.8% 3.9% 0.7%
encoded 213949 frames, 1.663 fps, 18583.84 kb/s, 19769 MB
Скриншоты Скриншоты с субтитрами: Русские / Английские Сравнение
[url=http://***/forum/viewtopic.php?t=4991257]http://***/forum/viewtopic.php?t=4991257[/url] http://screenshotcomparison.com/comparison/123496/picture:0
Скачать

Скачать торрент!

Как скачивать? · Что такое торрент? · Рейтинг и ограничения

Сайт не распространяет и не хранит электронные версии произведений, а лишь предоставляет доступ к создаваемому пользователями каталогу ссылок на торрент-файлы, которые содержат только списки хеш-сумм

[Профиль] [ЛС]
Показать сообщения:    
Ответить на тему

Текущее время: Сегодня 08:10

Часовой пояс: GMT + 4



Вы не можете начинать темы
Вы не можете отвечать на сообщения
Вы не можете редактировать свои сообщения
Вы не можете удалять свои сообщения
Вы не можете голосовать в опросах
Вы не можете прикреплять файлы к сообщениям
Вы не можете скачивать файлы