Техники / Специалисты / The Con Artists / Criminal Designer / Gisuljadeul (Ким Хон Сон / Hong-seon Kim) [2014, Южная Корея, боевик, криминал, приключения, HDRip] MVO (GREEN TEA)

Ответить на тему
 
Автор Сообщение

user ®

Стаж: 13 лет

Сообщений: 15071

Пост Пост: #1 от 24-Апр-2015 11:57

[Цитировать]

Техники / Специалисты / The Con Artists / Criminal Designer / Gisuljadeul- -Страна: Южная Корея
Жанр: боевик, криминал, приключения
Год выпуска: 2014
Продолжительность: 01:57:02-Перевод: Любительский (многоголосый закадровый) [GREEN TEA] по переводу [Алексей Хорошавин]-Cубтитры: нет
Оригинальная аудиодорожка: нет
Режиссер: Ким Хон Сон / Hong-seon Kim
В ролях: Ким У Бин, Ли Хён У, Чо Юн Хье, Ён-чхоль Ким, Ко Чан Сок, Чо Даль Хван, Гу Шин, Им Чжу Хван, Чон Ман Сик
Описание: История о приключениях лучшего взломщика сейфов, хакера и их друзей. Преступная группа намерена похитить 150 миллиардов вон из офиса таможни в столичном аэропорту Инчхон. Эти безумные деньги появятся там всего на сорок минут, поэтому времени на ошибку у парней нет.
Релиз от - &
Сэмпл: http://multi-up.com/1045242
Видео: MPEG-4 Visual at 758 Кбит/сек; 688 x 288 (2.389) at 24.000 fps
Аудио: MPEG Audio at 128 Кбит/сек; 2 канала, 48,0 КГц
Автор -
MediaInfo
Общее
Полное имя : D:\Фильмы\Азиатские\Специалисты\Criminal Designer.2014.HDRip.XviD.745MB. rip by [Asssassin's Creed].avi
Формат : AVI
Формат/Информация : Audio Video Interleave
Размер файла : 749 Мбайт
Продолжительность : 1 ч. 57 м.
Общий поток : 895 Кбит/сек
Программа кодирования : VirtualDubMod 1.5.10.3 | www.virtualdub-fr.org || (build 2550/release)
Библиотека кодирования : VirtualDubMod build 2550/release
Видео
Идентификатор : 0
Формат : MPEG-4 Visual
Профиль формата : Advanced Simple@L5
Параметр BVOP формата : 1
Параметр QPel формата : Нет
Параметр GMC формата : Без точки перехода
Параметр матрицы формата : Default (MPEG)
Идентификатор кодека : XVID
Идентификатор кодека/Подсказка : XviD
Продолжительность : 1 ч. 57 м.
Битрейт : 758 Кбит/сек
Ширина : 688 пикселей
Высота : 288 пикселей
Соотношение сторон : 2,40:1
Частота кадров : 24,000 кадра/сек
Цветовое пространство : YUV
Субдискретизация насыщенности : 4:2:0
Битовая глубина : 8 бит
Тип развёртки : Прогрессивная
Метод сжатия : С потерями
Бит/(Пиксели*Кадры) : 0.159
Размер потока : 634 Мбайт (85%)
Библиотека кодирования : XviD 1.2.1 (UTC 2008-12-04)
Аудио
Идентификатор : 1
Формат : MPEG Audio
Версия формата : Version 1
Профиль формата : Layer 3
Идентификатор кодека : 55
Идентификатор кодека/Подсказка : MP3
Продолжительность : 1 ч. 57 м.
Вид битрейта : Постоянный
Битрейт : 128 Кбит/сек
Каналы : 2 канала
Частота : 48,0 КГц
Метод сжатия : С потерями
Размер потока : 107 Мбайт (14%)
Выравнивание : Соединение по промежуткам
Продолжительность промежутка : 42 мс. (1,00 видеокадр)
Время предзагрузки промежутка : 504 мс.
Библиотека кодирования : LAME3.99r
Настройки программы : -m s -V 4 -q 2 -lowpass 17 -b 128
Скриншот c названием фильма Скриншоты
Скачать

Скачать торрент! Техники / Специалисты / The Con Artists / Criminal Designer / Gisuljadeul (Ким Хон Сон / Hong-seon Kim) [2014, Южная Корея, боевик, криминал, приключения, HDRip] MVO (GREEN TEA)

Как скачивать? · Что такое торрент? · Рейтинг и ограничения

Сайт не распространяет и не хранит электронные версии произведений, а лишь предоставляет доступ к создаваемому пользователями каталогу ссылок на торрент-файлы, которые содержат только списки хеш-сумм

[Профиль] [ЛС]
Показать сообщения:    
Ответить на тему

Текущее время: Сегодня 20:11

Часовой пояс: GMT + 4



Вы не можете начинать темы
Вы не можете отвечать на сообщения
Вы не можете редактировать свои сообщения
Вы не можете удалять свои сообщения
Вы не можете голосовать в опросах
Вы не можете прикреплять файлы к сообщениям
Вы не можете скачивать файлы