Голодные игры: Сойка-пересмешница. Часть I / The Hunger Games: Mockingjay - Part 1 (Френсис Лоуренс / Francis Lawrence) [2014, США, фантастика, приключения, BDRip 720p] [REPACK] Dub + VO + Sub Rus, Eng + Original Eng

Ответить на тему
 
Автор Сообщение

user ®

Стаж: 7 лет 7 месяцев

Сообщений: 20008

Пост Пост: #1 от 22-Апр-2015 16:33

[Цитировать]

Голодные игры: Сойка-пересмешница. Часть I / The Hunger Games: Mockingjay - Part 1 Страна: США
Студия: Color Force, Lionsgate
Жанр: фантастика, приключения
Год выпуска: 2014
Продолжительность: 02:02:50
Перевод 1: Профессиональный (дублированный) BD RUS
Перевод 2: Одноголосый (закадровый) Матвеев
Cубтитры: русские (forced, full), английские (full, SDH)
Оригинальная аудиодорожка: английский
Режиссер: Френсис Лоуренс / Francis Lawrence
В ролях: Дженнифер Лоуренс, Джош Хатчерсон, Лиам Хемсворт, Вуди Харрельсон, Дональд Сазерленд, Филип Сеймур Хоффман, Джулианна Мур, Уиллоу Шилдс, Сэм Клафлин, Элизабет Бэнкс
Описание: 75-ые Голодные игры изменили все. Китнисс нарушила правила, и непоколебимое до той поры деспотичное правление Капитолия пошатнулось. У людей появилась надежда, и ее символ — Сойка-пересмешница. Теперь, чтобы освободить захваченного в плен Пита и защитить своих близких, Китнисс придется сражаться в настоящих битвах и стать еще сильнее, чем на арене игр.

Тип релиза: BDRip 720p [DON]
Контейнер: MKV
Видео: AVC, 1280x534, 6142Kbps, 23.976 fps
Аудио 1: Russian: 48 kHz, AC3, 3/2 (L,C,R,l,r) + LFE ch, ~640.00 kbps avg |BD RUS|
Аудио 2: Russian: 48 kHz, AC3, 3/2 (L,C,R,l,r) + LFE ch, ~640.00 kbps avg |Матвеев|
Аудио 3: English: 48 kHz, AC3, 3/2 (L,C,R,l,r) + LFE ch, ~640.00 kbps |Original|
Аудио 4: English: 48 kHz, AC3, 2/0 (L,R) ch, ~192.00 kbps avg |Commentary with director Francis Lawrence and producer Nina Jacobson|
Чаптеры: есть

Доп.информация
Перевод Матвеев: будулайроманов
Работа со звуком - Переводман
Notes
The source has lots of places with banding, so I intensively debanded opening titles
and softly the whole movie. --zoned some scenes. Trimmed frames with Belga Studio logo
and added some blank ones so that source completely match to US edition.
MediaInfo
General
Unique ID : 245846764288784764660324060848001632653 (0xB8F45D505C30CA71B0ECE604D60FC98D)
Complete name : D:\The.Hunger.Games.Mockingjay.Part.1.2014.REPACK.720p.BluRay.DD5.1.x264-Talian-.mkv
Format : Matroska
Format version : Version 2
File size : 7.25 GiB
Duration : 2h 2mn
Overall bit rate : 8 454 Kbps
Movie name : The Hunger Games: Mockingjay - Part 1 -Talian-
Encoded date : UTC 2015-04-21 09:42:34
Writing application : mkvmerge v5.7.0 ('The Whirlwind') built on Jul 8 2012 20:08:51
Writing library : libebml v1.2.3 + libmatroska v1.3.0
Video
ID : 1
Format : AVC
Format/Info : Advanced Video Codec
Format profile : High@L4.1
Format settings, CABAC : Yes
Format settings, ReFrames : 12 frames
Codec ID : V_MPEG4/ISO/AVC
Duration : 2h 2mn
Bit rate : 6 173 Kbps
Width : 1 280 pixels
Height : 534 pixels
Display aspect ratio : 2.40:1
Original display aspect ratio : 2.40:1
Frame rate : 23.976 fps
Color space : YUV
Chroma subsampling : 4:2:0
Bit depth : 8 bits
Scan type : Progressive
Bits/(Pixel*Frame) : 0.377
Stream size : 5.30 GiB (73%)
Title : DON
Writing library : x264 core 144 r2525kMod 40bb568
Encoding settings : cabac=1 / ref=12 / deblock=1:-3:-3 / analyse=0x3:0x133 / me=tesa / subme=10 / psy=1 / fade_compensate=0.00 / psy_rd=1.00:0.00 / mixed_ref=1 / me_range=24 / chroma_me=1 / trellis=2 / 8x8dct=1 / cqm=0 / deadzone=21,11 / fast_pskip=0 / chroma_qp_offset=-2 / threads=6 / lookahead_threads=1 / sliced_threads=0 / nr=0 / decimate=0 / interlaced=0 / bluray_compat=0 / constrained_intra=0 / fgo=0 / bframes=10 / b_pyramid=2 / b_adapt=2 / b_bias=0 / direct=3 / weightb=1 / open_gop=0 / weightp=2 / keyint=250 / keyint_min=23 / scenecut=40 / intra_refresh=0 / rc_lookahead=60 / rc=crf / mbtree=0 / crf=15.2000 / qcomp=0.75 / qpmin=0 / qpmax=69 / qpstep=4 / vbv_maxrate=62500 / vbv_bufsize=78125 / crf_max=0.0 / nal_hrd=none / filler=0 / ip_ratio=1.30 / pb_ratio=1.20 / aq=1:0.85 / zones=53,777,crf=11/1228,1936,crf=12/14497,15957,crf=12
Language : English
Default : Yes
Forced : No
Audio #1
ID : 2
Format : AC-3
Format/Info : Audio Coding 3
Mode extension : CM (complete main)
Format settings, Endianness : Big
Codec ID : A_AC3
Duration : 2h 2mn
Bit rate mode : Constant
Bit rate : 640 Kbps
Channel(s) : 6 channels
Channel positions : Front: L C R, Side: L R, LFE
Sampling rate : 48.0 KHz
Bit depth : 16 bits
Compression mode : Lossy
Stream size : 562 MiB (8%)
Title : DUB-BD RUS
Language : Russian
Default : Yes
Forced : No
Audio #2
ID : 3
Format : AC-3
Format/Info : Audio Coding 3
Mode extension : CM (complete main)
Format settings, Endianness : Big
Codec ID : A_AC3
Duration : 2h 2mn
Bit rate mode : Constant
Bit rate : 640 Kbps
Channel(s) : 6 channels
Channel positions : Front: L C R, Side: L R, LFE
Sampling rate : 48.0 KHz
Bit depth : 16 bits
Compression mode : Lossy
Stream size : 562 MiB (8%)
Title : VO-Матвеев
Language : Russian
Default : No
Forced : No
Audio #3
ID : 4
Format : AC-3
Format/Info : Audio Coding 3
Mode extension : CM (complete main)
Format settings, Endianness : Big
Codec ID : A_AC3
Duration : 2h 2mn
Bit rate mode : Constant
Bit rate : 640 Kbps
Channel(s) : 6 channels
Channel positions : Front: L C R, Side: L R, LFE
Sampling rate : 48.0 KHz
Bit depth : 16 bits
Compression mode : Lossy
Stream size : 562 MiB (8%)
Title : Original
Language : English
Default : No
Forced : No
Audio #4
ID : 5
Format : AC-3
Format/Info : Audio Coding 3
Mode extension : CM (complete main)
Format settings, Endianness : Big
Codec ID : A_AC3
Duration : 2h 2mn
Bit rate mode : Constant
Bit rate : 192 Kbps
Channel(s) : 2 channels
Channel positions : Front: L R
Sampling rate : 48.0 KHz
Bit depth : 16 bits
Compression mode : Lossy
Stream size : 169 MiB (2%)
Title : Commentary with director Francis Lawrence and producer Nina Jacobson
Language : English
Default : No
Forced : No
Text #1
ID : 6
Format : UTF-8
Codec ID : S_TEXT/UTF8
Codec ID/Info : UTF-8 Plain Text
Title : Sub-forced
Language : Russian
Default : Yes
Forced : No
Text #2
ID : 7
Format : UTF-8
Codec ID : S_TEXT/UTF8
Codec ID/Info : UTF-8 Plain Text
Title : Sub-full
Language : Russian
Default : No
Forced : No
Text #3
ID : 8
Format : UTF-8
Codec ID : S_TEXT/UTF8
Codec ID/Info : UTF-8 Plain Text
Title : Sub-full
Language : English
Default : No
Forced : No
Text #4
ID : 9
Format : UTF-8
Codec ID : S_TEXT/UTF8
Codec ID/Info : UTF-8 Plain Text
Title : Sub-SDH
Language : English
Default : No
Forced : No
Menu
00:00:00.000 : en:00:00:00.000
00:09:13.136 : en:00:09:13.136
00:15:32.140 : en:00:15:32.140
00:24:27.549 : en:00:24:27.549
00:34:47.669 : en:00:34:47.669
00:37:15.442 : en:00:37:15.442
00:43:04.290 : en:00:43:04.290
00:53:03.889 : en:00:53:03.889
00:59:51.254 : en:00:59:51.254
01:05:45.942 : en:01:05:45.942
01:09:57.235 : en:01:09:57.235
01:12:33.349 : en:01:12:33.349
01:25:09.563 : en:01:25:09.563
01:33:18.843 : en:01:33:18.843
01:43:08.182 : en:01:43:08.182
01:51:14.459 : en:01:51:14.459
Скриншоты
Source Filtered Encode Old DON


Скачать

Скачать торрент!

Как скачивать? · Что такое торрент? · Рейтинг и ограничения

Сайт не распространяет и не хранит электронные версии произведений, а лишь предоставляет доступ к создаваемому пользователями каталогу ссылок на торрент-файлы, которые содержат только списки хеш-сумм

[Профиль] [ЛС]
Показать сообщения:    
Ответить на тему

Текущее время: Сегодня 00:10

Часовой пояс: GMT + 4



Вы не можете начинать темы
Вы не можете отвечать на сообщения
Вы не можете редактировать свои сообщения
Вы не можете удалять свои сообщения
Вы не можете голосовать в опросах
Вы не можете прикреплять файлы к сообщениям
Вы не можете скачивать файлы