Я снова здесь / Снова привет / Hello Again (Фрэнк Перри / Frank Perry) [1987, США, мелодрама, комедия, WEB-DL 720p] AVO (А. Михалев) + Sub Eng + Original Eng

Ответить на тему
 
Автор Сообщение

user ®

Стаж: 7 лет 7 месяцев

Сообщений: 20008

Пост Пост: #1 от 22-Апр-2015 16:33

[Цитировать]

Я снова здесь / Снова привет / Hello Again
Страна: США
Студия: Silver Screen Partners III, Touchstone Pictures
Жанр: мелодрама, комедия
Год выпуска: 1987
Продолжительность: 01:36:11
Перевод: Авторский (одноголосый закадровый) А. Михалев
Cубтитры: английские
Оригинальная аудиодорожка: английский
Режиссер: Фрэнк Перри / Frank Perry
В ролях: Шелли Лонг, Джудит Айви, Гэбриел Бирн, Корбин Бернсен, Села Уорд, Остин Пендлтон, Кэрри Най, Роберт Льюис, Мэдлин Поттер, Тор Филдс
Описание: Люси замужем за пластическим хирургом Джейсоном, но её счастливая семейная жизнь однажды даёт трещину. Проще говоря, Люси умирает. Но год спустя после своей преждевременной кончины Люси воскрешает из мертвых её сестра — колдунья Зельда. Женщине приходится приспосабливаться к изменившимся обстоятельствам, так как Джейсон женился на её лучшей подруге Ким, а соседи не считают её воскрешение положительным событием. Люси не верит, что она умирала, поэтому пытается продолжать вести нормальную жизнь…

Sample
Тип релиза: WEB-DL 720p
Контейнер: MKV
Видео: MPEG4 AVC Video, H264, 16:9, 1280x686, 23.976 fps, 4122 kbps
Аудио: Russian (AC3, 2 ch, 192 kbps, 16 bits, 48.0 KHz) - AVO
Аудио 2: English (AC3, 2 ch, 192 kbps, 16 bits, 48.0 KHz) - оригинал
Формат субтитров: softsub (SRT)

MediaInfo
General
Unique ID : 180518123045753706659457813415247506703 (0x87CE869F46555F78BB89B5BC19E86D0F)
Complete name : E:\1\Новая папка\Hello Again 1987 WEB-DL 720p.mkv
Format : Matroska
Format version : Version 4 / Version 2
File size : 3.09 GiB
Duration : 1h 36mn
Overall bit rate : 4 598 Kbps
Encoded date : UTC 2015-04-21 15:21:35
Writing application : mkvmerge v6.1.0 ('Old Devil') built on Mar 2 2013 14:32:37
Writing library : libebml v1.3.0 + libmatroska v1.4.0
Video
ID : 1
Format : AVC
Format/Info : Advanced Video Codec
Format profile : High@L3.1
Format settings, CABAC : No
Format settings, ReFrames : 2 frames
Codec ID : V_MPEG4/ISO/AVC
Duration : 1h 36mn
Bit rate : 4 122 Kbps
Width : 1 280 pixels
Height : 686 pixels
Display aspect ratio : 1.85:1
Frame rate mode : Constant
Frame rate : 23.976 fps
Color space : YUV
Chroma subsampling : 4:2:0
Bit depth : 8 bits
Scan type : Progressive
Bits/(Pixel*Frame) : 0.196
Stream size : 2.77 GiB (90%)
Language : English
Default : Yes
Forced : No
Color primaries : BT.709
Transfer characteristics : BT.709
Matrix coefficients : BT.709
Audio #1
ID : 2
Format : AC-3
Format/Info : Audio Coding 3
Mode extension : CM (complete main)
Format settings, Endianness : Big
Codec ID : A_AC3
Duration : 1h 36mn
Bit rate mode : Constant
Bit rate : 192 Kbps
Channel count : 2 channels
Channel positions : Front: L R
Sampling rate : 48.0 KHz
Bit depth : 16 bits
Compression mode : Lossy
Stream size : 132 MiB (4%)
Language : Russian
Default : Yes
Forced : Yes
Audio #2
ID : 3
Format : AC-3
Format/Info : Audio Coding 3
Mode extension : CM (complete main)
Format settings, Endianness : Big
Codec ID : A_AC3
Duration : 1h 36mn
Bit rate mode : Constant
Bit rate : 192 Kbps
Channel count : 2 channels
Channel positions : Front: L R
Sampling rate : 48.0 KHz
Bit depth : 16 bits
Compression mode : Lossy
Stream size : 132 MiB (4%)
Language : English
Default : No
Forced : No
Text
ID : 4
Format : UTF-8
Codec ID : S_TEXT/UTF8
Codec ID/Info : UTF-8 Plain Text
Language : English
Default : No
Forced : No
Menu
00:00:00.000 : en:"I'm Lucy Chadman"
00:08:41.000 : en:Zelda
00:21:51.000 : en:The Funeral
00:24:54.000 : en:One Year Later
00:34:42.000 : en:Dr. Scanlon
00:39:22.000 : en:Jason & Kim
00:51:22.000 : en:"I Can Be Anything"
01:00:10.000 : en:In The Neighborhood
01:03:41.000 : en:The Daycare Center
01:07:51.000 : en:Hello Again
01:24:54.000 : en:Do Something Big
01:32:03.000 : en:Second Chance
Скриншоты
Скачать

Скачать торрент!

Как скачивать? · Что такое торрент? · Рейтинг и ограничения

Сайт не распространяет и не хранит электронные версии произведений, а лишь предоставляет доступ к создаваемому пользователями каталогу ссылок на торрент-файлы, которые содержат только списки хеш-сумм

[Профиль] [ЛС]
Показать сообщения:    
Ответить на тему

Текущее время: Сегодня 03:57

Часовой пояс: GMT + 4



Вы не можете начинать темы
Вы не можете отвечать на сообщения
Вы не можете редактировать свои сообщения
Вы не можете удалять свои сообщения
Вы не можете голосовать в опросах
Вы не можете прикреплять файлы к сообщениям
Вы не можете скачивать файлы