Ученики Шаолиня / Disciples Of Shaolin / Hong quan xiao zi (Че Чанг / Chang Cheh) [1975, Гонконг, Тайвань, боевик, драма, HDRip] AVO (С. Кузнецов)

Ответить на тему
 
Автор Сообщение

user ®

Стаж: 13 лет

Сообщений: 15071

Пост Пост: #1 от 22-Апр-2015 10:21

[Цитировать]

Ученики Шаолиня / Disciples Of Shaolin / Hong quan xiao zi- -Страна: Гонконг, Тайвань
Жанр: боевик, драма
Год выпуска: 1975
Продолжительность: 01:47:14-Перевод: Авторский (одноголосый закадровый) [С. Кузнецов]-Cубтитры: нет
Оригинальная аудиодорожка: нет
Режиссер: Че Чанг / Chang Cheh
В ролях: Шенг Фу, Куан-Чун Чи, Минг Ли Чен, Джинг Пинг Вонг, Ти Лу, Конг Тау, Фонг Ла Энн, Конг Ан
Описание: Хан работает на текстильном заводе и помогает устроить на работу Куана. Куан замечает, что настоящее богатство никогда не будет получено обычным рабочим и богатство, которого он жаждет, никогда не будет его. Однако, когда конкурирующий завод использует насилие в борьбе с ними, Куан использует свои навыки кунг-Фу для большого эффекта и получает подарки от владельца завода.
Релиз от -
Сэмпл: http://multi-up.com/1044618
Качество видео: HDRip
Формат видео: AVI
Видео: MPEG-4 Visual at 1752 Кбит/сек; 704 x 304 (2.316) at 23.976 fps
Аудио: AC-3 at 192 Кбит/сек; 2 канала, 48,0 КГц
Автор -
MediaInfo
Общее
Полное имя : D:\Фильмы\Азиатские\Ученики Шаолиня\Disciples Of Shaolin.1975.HDRip.XviD.1400MB. rip by [Assassin's Creed].avi
Формат : AVI
Формат/Информация : Audio Video Interleave
Размер файла : 1,46 Гбайт
Продолжительность : 1 ч. 47 м.
Общий поток : 1953 Кбит/сек
Программа кодирования : VirtualDubMod 1.5.10.3 | www.virtualdub-fr.org || (build 2550/release)
Библиотека кодирования : VirtualDubMod build 2550/release
Видео
Идентификатор : 0
Формат : MPEG-4 Visual
Профиль формата : Advanced Simple@L5
Параметр BVOP формата : 1
Параметр QPel формата : Нет
Параметр GMC формата : Без точки перехода
Параметр матрицы формата : Default (MPEG)
Идентификатор кодека : XVID
Идентификатор кодека/Подсказка : XviD
Продолжительность : 1 ч. 47 м.
Битрейт : 1752 Кбит/сек
Ширина : 704 пикселя
Высота : 304 пикселя
Соотношение сторон : 2,35:1
Частота кадров : 23,976 кадра/сек
Цветовое пространство : YUV
Субдискретизация насыщенности : 4:2:0
Битовая глубина : 8 бит
Тип развёртки : Прогрессивная
Метод сжатия : С потерями
Бит/(Пиксели*Кадры) : 0.341
Размер потока : 1,31 Гбайт (90%)
Библиотека кодирования : XviD 1.2.1 (UTC 2008-12-04)
Аудио
Идентификатор : 1
Формат : AC-3
Формат/Информация : Audio Coding 3
Расширение режима : CM (complete main)
Параметр Endianness формата : Big
Идентификатор кодека : 2000
Продолжительность : 1 ч. 47 м.
Вид битрейта : Постоянный
Битрейт : 192 Кбит/сек
Каналы : 2 канала
Расположение каналов : Front: L R
Частота : 48,0 КГц
Битовая глубина : 16 бит
Метод сжатия : С потерями
Размер потока : 147 Мбайт (10%)
Выравнивание : Разделение по промежуткам
Продолжительность промежутка : 42 мс. (1,00 видеокадр)
Время предзагрузки промежутка : 500 мс.
Скриншот c названием фильма Скриншоты
Скачать

Скачать торрент! Ученики Шаолиня / Disciples Of Shaolin / Hong quan xiao zi (Че Чанг / Chang Cheh) [1975, Гонконг, Тайвань, боевик, драма, HDRip] AVO (С. Кузнецов)

Как скачивать? · Что такое торрент? · Рейтинг и ограничения

Сайт не распространяет и не хранит электронные версии произведений, а лишь предоставляет доступ к создаваемому пользователями каталогу ссылок на торрент-файлы, которые содержат только списки хеш-сумм

[Профиль] [ЛС]
Показать сообщения:    
Ответить на тему

Текущее время: Сегодня 21:21

Часовой пояс: GMT + 4



Вы не можете начинать темы
Вы не можете отвечать на сообщения
Вы не можете редактировать свои сообщения
Вы не можете удалять свои сообщения
Вы не можете голосовать в опросах
Вы не можете прикреплять файлы к сообщениям
Вы не можете скачивать файлы