Взрослая дочь, или Тест на... (Мгер Мкртчян) [2010, комедия, мелодрама, DVDRip]

Ответить на тему
 
Автор Сообщение

user ®

Стаж: 7 лет 7 месяцев

Сообщений: 20008

Пост Пост: #1 от 22-Окт-2010 22:14

[Цитировать]

Взрослая дочь, или Тест на...
Жанр: комедия, мелодрама
Год выпуска: 2010
Продолжительность: 01:33:34
Режиссёр: Мгер Мкртчян
В ролях: Дмитрий Марьянов, Илья Шакунов, Евгения Хиривская, Олеся Судзиловская, Гела Месхи, Сергей Горобченко, Александр Константинов, Нелли Неведина, Олег Тактаров, Инна Капнулина
Описание: Ему 37, ей — 17. Он еще молод и хорош собой, флиртует с ее однокурсницами, вызывая у дочери бурное негодование. Она приводит в дом своих поклонников, которые доводят отца до бешенства. И все же, отец и дочь любят и понимают друг друга. Но в жизни их маленькой семьи появляется неожиданный персонаж. Что делает отец, когда дочь влюблена в его партнера по бизнесу?
Семпл: http://multi-up.com/321689
Качество видео: DVDRip
Формат видео: AVI
Видео: 672x288 (2.33:1), 25 fps, XviD MPEG-4 ~978 kbps avg, 0.20 bit/pixel
Аудио: 48 kHz, MPEG Layer 3, 2 ch, ~128.00 kbps avg

MediaInfo

D:\ФИЛЬМЫ\Взрослая дочь или тест на.avi
General
Complete name : D:\ФИЛЬМЫ\Взрослая дочь или тест на.avi
Format : AVI
Format/Info : Audio Video Interleave
File size : 747 MiB
Duration : 1h 33mn
Overall bit rate : 1 116 Kbps
Writing application : VirtualDubModRus 1.5.10.2 (build 2540/release)
Writing library : VirtualDubMod build 2540/release
Video
Format : MPEG-4 Visual
Format profile : Streaming Video@L1
Format settings, BVOP : Yes
Format settings, QPel : No
Format settings, GMC : No warppoints
Format settings, Matrix : Default
Muxing mode : Packed bitstream
Codec ID : XVID
Codec ID/Hint : XviD
Duration : 1h 33mn
Bit rate : 978 Kbps
Width : 672 pixels
Height : 288 pixels
Display aspect ratio : 2.35
Frame rate : 25.000 fps
Resolution : 24 bits
Colorimetry : 4:2:0
Scan type : Progressive
Bits/(Pixel*Frame) : 0.202
Stream size : 655 MiB (88%)
Writing library : XviD 50
Audio
Format : MPEG Audio
Format version : Version 1
Format profile : Layer 3
Codec ID : 55
Codec ID/Hint : MP3
Duration : 1h 33mn
Bit rate mode : Constant
Bit rate : 128 Kbps
Channel(s) : 2 channels
Sampling rate : 48.0 KHz
Resolution : 16 bits
Stream size : 85.7 MiB (11%)
Alignment : Aligned on interleaves
Interleave, duration : 40 ms (1.00 video frame)
Interleave, preload duration : 504 ms

Скриншот c названием фильма

Скриншоты

Скачать

Скачать торрент!

Как скачивать? · Что такое торрент? · Рейтинг и ограничения

Сайт не распространяет и не хранит электронные версии произведений, а лишь предоставляет доступ к создаваемому пользователями каталогу ссылок на торрент-файлы, которые содержат только списки хеш-сумм

[Профиль] [ЛС]
Показать сообщения:    
Ответить на тему

Текущее время: Сегодня 10:44

Часовой пояс: GMT + 4



Вы не можете начинать темы
Вы не можете отвечать на сообщения
Вы не можете редактировать свои сообщения
Вы не можете удалять свои сообщения
Вы не можете голосовать в опросах
Вы не можете прикреплять файлы к сообщениям
Вы не можете скачивать файлы