Легенда о динозавре 2 / Годзилла против Мекагодзиллы 2 / Godzilla vs. Mechagodzilla II (Такао Окавара / Takao Okawara) [1993, Япония, фантастика, BDRip] DVO

Ответить на тему
 
Автор Сообщение

user ®

Стаж: 13 лет

Сообщений: 15071

Пост Пост: #1 от 22-Апр-2015 01:06

[Цитировать]

Легенда о динозавре 2 / Годзилла против Мекагодзиллы 2 / Godzilla vs. Mechagodzilla II- Страна: Япония
Жанр: фантастика
Год выпуска: 1993
Продолжительность: 01:47:47-Перевод:
Профессиональный (двухголосый закадровый) НТВ
текст читали Ольга Остроумова и Александр Воеводин
-Cубтитры: нет-Режиссер: Такао Окавара / Takao Okawara-В ролях: Масахиро Такашима, Риоко Сано, Мегуми Одака, Юсуке Кавазу, Кенджи Сахара, Акира Накао, Коити Уэда, Дайдзиро Харада, Тадао Такашима-Описание: Пытаясь найти оружие, способное уничтожить Годзиллу, ученые создают Мекагодзиллу - робота, воплощение всех самых последних технологий.
В это же время на одном из островов находят странное яйцо, которое охраняет Родан, доисторический птеранодон.
Используя яйцо как приманку для Годзиллы, японцы надеются заманить его на пустынный остров, где Мекагодзилла смог бы его уничтожить.-Доп. информация: Исходник [url=http://***/forum/viewtopic.php?t=4755821]BDRemux[/url]
Звуковая дорожка взята [url=http://***/forum/viewtopic.php?t=266838]Отсюда[/url]
Синхронизация - *Sergeant_am*
Озвучивание недостающих мест (24 титра, разбитых по всему фильму) - [url=http://***/forum/profile.php?mode=viewprofile&u=923668]avtobot[/url]-Сэмпл: Скачать-[url=http://***/forum/viewtopic.php?t=4118169]Годзилла: Миллениум (1999) DVDRip[/url]
[url=http://***/forum/viewtopic.php?t=3965538]Годзилла против Мегагируса: Команда на уничтожение (2000) DVDRip[/url]
[url=http://***/forum/viewtopic.php?t=4215269]Годзилла: Монстры атакуют (2001) DVDRip[/url]
[url=http://***/forum/viewtopic.php?t=4209990]Годзилла против МекаГодзиллы 3 (2002) DVDRip[/url]
[url=http://***/forum/viewtopic.php?t=4210072]Годзилла: спасите Токио (2003) DVDRip[/url]
[url=http://***/forum/viewtopic.php?t=4212740]Годзилла: Финальные войны (2004) DVDRip[/url]-Качество видео: BDRip
Формат видео: AVI-Видео: 720x384 (1.88:1), 23.976 fps, XviD build 73 ~1600 kbps avg, 0.24 bit/pixel
Аудио: 48 kHz, AC3 Dolby Digital, 2/0 (L,R) ch, ~192.00 kbps avg
Отчёт MediaInfo
Общее
Полное имя : C:\Users\Andrey\Downloads\Годзилла против Мекагодзиллы 2 (BDRip).avi
Формат : AVI
Формат/Информация : Audio Video Interleave
Размер файла : 1,36 Гбайт
Продолжительность : 1 ч. 47 м.
Общий поток : 1801 Кбит/сек
Программа кодирования : VirtualDubModRus 1.5.10.2 (build 2542/release)
Библиотека кодирования : VirtualDubMod build 2542/release
Видео
Идентификатор : 0
Формат : MPEG-4 Visual
Профиль формата : Advanced Simple@L5
Параметр BVOP формата : 1
Параметр QPel формата : Нет
Параметр GMC формата : Без точки перехода
Параметр матрицы формата : Выборочная
Идентификатор кодека : DX50
Идентификатор кодека/Подсказка : DivX 5
Продолжительность : 1 ч. 47 м.
Битрейт : 1600 Кбит/сек
Ширина : 720 пикселей
Высота : 384 пикселя
Соотношение сторон : 1,85:1
Частота кадров : 23,976 кадра/сек
Цветовое пространство : YUV
Субдискретизация насыщенности : 4:2:0
Битовая глубина : 8 бит
Тип развёртки : Прогрессивная
Метод сжатия : С потерями
Бит/(Пиксели*Кадры) : 0.241
Размер потока : 1,20 Гбайт (89%)
Библиотека кодирования : XviD 73
Аудио
Идентификатор : 1
Формат : AC-3
Формат/Информация : Audio Coding 3
Расширение режима : CM (complete main)
Параметр Endianness формата : Big
Идентификатор кодека : 2000
Продолжительность : 1 ч. 47 м.
Вид битрейта : Постоянный
Битрейт : 192 Кбит/сек
Каналы : 2 канала
Расположение каналов : Front: L R
Частота : 48,0 КГц
Битовая глубина : 16 бит
Метод сжатия : С потерями
Размер потока : 148 Мбайт (11%)
Выравнивание : Разделение по промежуткам
Продолжительность промежутка : 42 мс. (1,00 видеокадр)
Время предзагрузки промежутка : 500 мс.
Скриншоты
Скачать

Скачать торрент! Легенда о динозавре 2 / Годзилла против Мекагодзиллы 2 / Godzilla vs. Mechagodzilla II (Такао Окавара / Takao Okawara) [1993, Япония, фантастика, BDRip] DVO

Как скачивать? · Что такое торрент? · Рейтинг и ограничения

Сайт не распространяет и не хранит электронные версии произведений, а лишь предоставляет доступ к создаваемому пользователями каталогу ссылок на торрент-файлы, которые содержат только списки хеш-сумм

[Профиль] [ЛС]
Показать сообщения:    
Ответить на тему

Текущее время: Сегодня 17:03

Часовой пояс: GMT + 4



Вы не можете начинать темы
Вы не можете отвечать на сообщения
Вы не можете редактировать свои сообщения
Вы не можете удалять свои сообщения
Вы не можете голосовать в опросах
Вы не можете прикреплять файлы к сообщениям
Вы не можете скачивать файлы