Безумные / The Demented (Кристофер Рузвельт / Christopher Roosevelt) [2013, США, ужасы, фантастика, триллер, драма, BDRemux 1080p] MVO + DVO + Original Eng + Sub (Rus, Eng)

Ответить на тему
 
Автор Сообщение

user ®

Стаж: 7 лет 7 месяцев

Сообщений: 20008

Пост Пост: #1 от 21-Апр-2015 18:54

[Цитировать]

Безумные / The Demented
Страна: США
Жанр: ужасы, фантастика, триллер, драма
Год выпуска: 2013
Продолжительность: 01:32:05
Перевод 1: Профессиональный (многоголосый закадровый) - online movies
Перевод 2: Любительский (двухголосый закадровый) - DeadSno & den904, перевод - Антон Кедров
Оригинальная аудиодорожка: английский
Cубтитры: русские (by rashstep), английские (полные и SDH)-Режиссер: Кристофер Рузвельт / Christopher Roosevelt
В ролях: Кайла Юэлл (Taylor), Ричард Конке (David), Эшли Брайен (Brice), Бриттни Элгер (Naomi), Сара Батлер (Sharley), Майкл Уэлш (Howard), Крис Эшворт (Military Soldier)-Описание: Шестеро друзей-студентов собираются вместе на выходные, где им приходится бороться за свою жизнь после террористической атаки, превратившей местных жителей в яростных зомби.-СЭМПЛ
Тип релиза: BDRemux 1080p
Исходник: The.Demented.2013.BluRay.COMPLETE-INSECTS, спасибо Vovec-800
Контейнер: MKV
Видео: 1920x1080p / 23.976 fps / 16:9 / High Profile 4.1 / AVC / ~ 26500 Kbps
Аудио 1: AC3 / 448 Kbps / 5.1 / 48 kHz / Russian / MVO (online movies)
Аудио 2: AC3 / 192 Kbps / 2.0 / 48 kHz / Russian / DVO (DeadSno & den904)
Аудио 3: TrueHD / 1640 Kbps (Embedded AC3: 640 Kbps) / 5.1 / 48 kHz / English / original
Формат субтитров: softsub (SRT)-IMDB * КиноПоиск-Примечание: 1. Внимание: озвучка от DeadSno & den904 содержит ненормативную лексику!
2. Русские субтитры набраны и отредактированы мной по переводу krilatkin, Антон Кедров. Нецензурные слова отсутствуют!
MediaInfo
General
Complete name : The.Demented.2013.BDRemux.1080p.MVO.DVO.mkv
Format : Matroska
Format version : Version 2
File size : 18.6 GiB
Duration : 1h 32mn
Overall bit rate mode : Variable
Overall bit rate : 28.9 Mbps
Encoded date : UTC 2015-04-19 18:12:35
Writing application : mkvmerge v5.8.0 ('No Sleep / Pillow') built on Sep 2 2012 15:37:04
Writing library : libebml v1.2.3 + libmatroska v1.3.0
Video
ID : 1
Format : AVC
Format/Info : Advanced Video Codec
Format profile : High@L4.1
Format settings, CABAC : Yes
Format settings, ReFrames : 2 frames
Codec ID : V_MPEG4/ISO/AVC
Duration : 1h 32mn
Bit rate mode : Variable
Width : 1 920 pixels
Height : 1 080 pixels
Display aspect ratio : 16:9
Frame rate mode : Constant
Frame rate : 23.976 fps
Color space : YUV
Chroma subsampling : 4:2:0
Bit depth : 8 bits
Scan type : Progressive
Title : The Demented 2013 BDRemux 1080p
Default : Yes
Forced : No
Audio #1
ID : 2
Format : AC-3
Format/Info : Audio Coding 3
Mode extension : CM (complete main)
Format settings, Endianness : Big
Codec ID : A_AC3
Duration : 1h 32mn
Bit rate mode : Constant
Bit rate : 448 Kbps
Channel(s) : 6 channels
Channel positions : Front: L C R, Side: L R, LFE
Sampling rate : 48.0 KHz
Bit depth : 16 bits
Compression mode : Lossy
Stream size : 295 MiB (2%)
Title : RUS AC3 448 Kbps 6ch MVO online movies
Language : Russian
Default : Yes
Forced : No
Audio #2
ID : 3
Format : AC-3
Format/Info : Audio Coding 3
Mode extension : CM (complete main)
Format settings, Endianness : Big
Codec ID : A_AC3
Duration : 1h 32mn
Bit rate mode : Constant
Bit rate : 192 Kbps
Channel(s) : 2 channels
Channel positions : Front: L R
Sampling rate : 48.0 KHz
Bit depth : 16 bits
Compression mode : Lossy
Stream size : 126 MiB (1%)
Title : RUS AC3 192 Kbps 2ch DVO DeadSno & den904
Language : Russian
Default : No
Forced : No
Audio #3
ID : 4
Format : TrueHD
Codec ID : A_TRUEHD
Duration : 1h 32mn
Bit rate mode : Variable
Maximum bit rate : 2 727 Kbps
Channel(s) : 6 channels
Channel positions : Front: L C R, Side: L R, LFE
Sampling rate : 48.0 KHz
Compression mode : Lossless
Title : ENG TrueHD 1640 Kbps 6ch original
Language : English
Default : No
Forced : No
Text #1
ID : 5
Format : UTF-8
Codec ID : S_TEXT/UTF8
Codec ID/Info : UTF-8 Plain Text
Title : RUS Subtitles by rashstep
Language : Russian
Default : No
Forced : No
Text #2
ID : 6
Format : UTF-8
Codec ID : S_TEXT/UTF8
Codec ID/Info : UTF-8 Plain Text
Title : ENG Subtitles
Language : English
Default : No
Forced : No
Text #3
ID : 7
Format : UTF-8
Codec ID : S_TEXT/UTF8
Codec ID/Info : UTF-8 Plain Text
Title : ENG Subtitles SDH
Language : English
Default : No
Forced : No
Menu
00:00:00.000 : :Chapter 01
00:02:42.329 : :Chapter 02
00:10:50.316 : :Chapter 03
00:18:16.637 : :Chapter 04
00:27:06.166 : :Chapter 05
00:39:29.784 : :Chapter 06
00:51:45.185 : :Chapter 07
00:58:45.522 : :Chapter 08
01:05:18.164 : :Chapter 09
01:15:30.901 : :Chapter 10
01:19:56.250 : :Chapter 11
01:29:18.937 : :Chapter 12
Скриншот с названием Скриншоты
Скачать

Скачать торрент!

Как скачивать? · Что такое торрент? · Рейтинг и ограничения

Сайт не распространяет и не хранит электронные версии произведений, а лишь предоставляет доступ к создаваемому пользователями каталогу ссылок на торрент-файлы, которые содержат только списки хеш-сумм

[Профиль] [ЛС]
Показать сообщения:    
Ответить на тему

Текущее время: Сегодня 18:33

Часовой пояс: GMT + 4



Вы не можете начинать темы
Вы не можете отвечать на сообщения
Вы не можете редактировать свои сообщения
Вы не можете удалять свои сообщения
Вы не можете голосовать в опросах
Вы не можете прикреплять файлы к сообщениям
Вы не можете скачивать файлы