Простой План / A Simple Plan (Сэм Рэйми / Sam Raimi) [1998, США, Великобритания, Германия (ФРГ), Япония, триллер, драма, криминал, BDRip 720p] DVO + AVO (Карцев) + Sub Rus, Eng + Original Eng

Ответить на тему
 
Автор Сообщение

user ®

Стаж: 7 лет 7 месяцев

Сообщений: 20008

Пост Пост: #1 от 21-Апр-2015 18:54

[Цитировать]

Простой План / A Simple Plan
Страна: США, Великобритания, Германия (ФРГ), Япония
Студия: Mutual Film Company
Жанр: триллер, драма, криминал
Год выпуска: 1998
Продолжительность: 02:01:02
Перевод 1: Авторский (одноголосый закадровый) Петр Карцев
Перевод 2: Профессиональный (двухголосый закадровый) R5 «Videogram».
Cубтитры: русские, английские
Оригинальная аудиодорожка: английский
Режиссер: Сэм Рэйми / Sam Raimi
В ролях: Билли Боб Торнтон /Billy Bob Thornton/, Билл Пэкстон /Bill Paxton/, Джек Уолш /Jack Walsh/, Брент Брискоу , /Brent Briscoe/, Бекки Энн Бэйкер, /Becky Ann Baker/, Гэри Коул /Gary Cole/, Бриджет Фонда /Bridget Fonda/, Челси Росс /Chelcie Ross/, Боб Дэвис /Bob Davis/
Описание: Действие происходит в небольшом городке американской глубинки недалеко от заповедника. Хэнк (Пэкстон), чья жена (Фонда) со дня на день ждет рождения первого ребенка, его старший брат Джейкоб (Торнтон) и Лу (Брискоу), друг Джейкоба, случайно находят в снежном лесу самолет, а в нем труп летчика и сумку с деньгами. Четыре миллиона четыреста тысяч долларов. Рассказ ведется от лица Хэнка. Хэнк предложил сообщить обо всем властям, но в конечном итоге деньги решено было оставить себе... Сколько уже мы видели фильмов с подобной завязкой, но в данном случае получился настоящий шедевр, непредсказуемый и захватывающий, чем-то напоминающий "Фарго" по глубине эмоционального воздействия и литературной обрисовке персонажей и взаимоотношений между ними. Эта мощнейшая психологическая драма поставлена по всем законам триллера. Не пропустите этот фильм, смотрится он так, что даже покурить не отойдете. Отличное кино, блестящая режиссура, потрясающая игра Торнтона и Пэкстона.
Две номинации на премию "Оскар" (1999г.): за лучшего актера (Билли Боб Торнтон) и за лучший адаптированный сценарий (Скотт Б. Смит), специальный приз жюри на МКФ полицейского кино - всего девять международных премий. (Иванов М.)
--------------------------------------------------------------------------------
Оператор: Алар Кирило /Alar Kirilo/
Сценарист: Скотт Б. Смит /Scott B. Smith/
Продюсер: Адам Шродер /Adam Schroeder/, Джеймс Джекс /James Jacks/
Переводчик: Петр Карцев
Монтажер: Артур Коберн /Arthur Coburn/, Эрик Л. Бисон /Eric L. Beason/
Композитор: Дэнни Элфман /Danny Elfman/
Художник: Патриция Фон Бранденстайн /Patrizia Von Brandenstein/
Костюмы: Джули Уайсс /Julie Weiss/
Исполнительный продюсер: Марк Гордон /Mark Gordon/, Гэри Левинсон /Gary Levinsohn/
Сопродюсер: Майкл Полэр /Michael Polaire/
Кастинг: Айлин Старджер /Ilene Starger/
По произведению: Скотт Б. Смит /Scott B. Smith/
--------------------------------------------------
Награды:
скрытый текст
Оскар, 1999 год

Номинации 2:
* Лучшая мужская роль второго плана (Билли Боб Торнтон)
* Лучший адаптированный сценарий
Золотой глобус, 1999 год

Номинации 1:
* Лучшая мужская роль второго плана (Билли Боб Торнтон)
Сатурн, 1999 год
Номинации 2:
* Лучший актер второго плана (Билли Боб Торнтон)
* Лучший приключенческий фильм, боевик или триллер
--------------------------------------------------
КИНОПОИСК. RU
РЕЙТИНГ 7.501 оценки: 190
7,5/10 from 46 489 users
--------------------------------------------------------------------
Доп. информация: Рип >>> A.Simple.Plan.1998.x264.BDRip.720p.HDclub, спасибо автору.
--------------------------------------------------------------------
СЭМПЛ
--------------------------------------------------
Тип релиза: BDRip 720p
Контейнер: MKV
Видео: H.264; 1276x720; 23.976 fps; ~ 8,379 Мbps; 0.379 Bits/Pixel
Аудио 1: Russian - 48 kHz, AC3 Dolby Digital, Front: L C R, Side: L R, LFE, ~ 384 kbps - DVO R5 «Videogram».
Аудио 2: Russian - 48 kHz, AC3 Dolby Digital, Front: L C R, Side: L R, LFE, ~ 640 kbps - Петр Карцев
Аудио 3: English - 48 kHz, AC3 Dolby Digital, Front: L C R, Side: L R, LFE, ~ 640 kbps - Original
Формат субтитров: Все SRT (*UTF-8)
MediaInfo
General
Complete name : F:\РАЗДАЧА WEB-DL 720p\SIMPLE PLAN, A.1998\A.Simple.Plan.1998-HDclub\A.simple plan.1998.720p.BluRay.HDclub.mkv
Format : Matroska
File size : 8.64 GiB
Duration : 2h 1mn
Overall bit rate : 10.2 Mbps
Movie name : Double Jeopardy (1999) - Release for HDCLUB
Encoded date : UTC 2015-04-19 14:54:46
Writing application : mkvmerge v3.3.0 ('Language') built on Mar 24 2010 14:59:24
Writing library : libebml v0.8.0 + libmatroska v0.9.0
Video
ID : 1
Format : AVC
Format/Info : Advanced Video Codec
Format profile : High@L4.1
Format settings, CABAC : Yes
Format settings, ReFrames : 9 frames
Muxing mode : Container profile=Unknown@4.1
Codec ID : V_MPEG4/ISO/AVC
Duration : 2h 1mn
Bit rate : 8 349 Kbps
Width : 1 276 pixels
Height : 720 pixels
Display aspect ratio : 16:9
Frame rate : 23.976 fps
Color space : YUV
Chroma subsampling : 4:2:0
Bit depth : 8 bits
Scan type : Progressive
Bits/(Pixel*Frame) : 0.379
Stream size : 7.06 GiB (82%)
Title : A simple plan 1998 720p BluRay DD5.1 x264-SbR
Writing library : x264 core 135 r2345kMod f0c1c53
Encoding settings : cabac=1 / ref=9 / deblock=1:-2:-2 / analyse=0x3:0x133 / me=umh / subme=11 / psy=1 / fade_compensate=0.00 / psy_rd=1.15:0.10 / mixed_ref=1 / me_range=32 / chroma_me=1 / trellis=2 / 8x8dct=1 / cqm=0 / deadzone=21,11 / fast_pskip=0 / chroma_qp_offset=-3 / threads=9 / lookahead_threads=2 / sliced_threads=0 / nr=0 / decimate=1 / interlaced=0 / bluray_compat=0 / constrained_intra=0 / bframes=12 / b_pyramid=2 / b_adapt=2 / b_bias=0 / direct=3 / weightb=1 / open_gop=0 / weightp=2 / keyint=250 / keyint_min=23 / scenecut=40 / intra_refresh=0 / rc_lookahead=60 / rc=crf / mbtree=1 / crf=19.3000 / qcomp=0.95 / qpmin=0 / qpmax=69 / qpstep=4 / ip_ratio=1.20 / aq=3:0.65
Language : English
Audio #1
ID : 2
Format : AC-3
Format/Info : Audio Coding 3
Mode extension : CM (complete main)
Codec ID : A_AC3
Duration : 2h 1mn
Bit rate mode : Constant
Bit rate : 384 Kbps
Channel(s) : 6 channels
Channel positions : Front: L C R, Side: L R, LFE
Sampling rate : 48.0 KHz
Stream size : 332 MiB (4%)
Title : DVO @ AC3 6ch @ 384 kbps
Language : Russian
Audio #2
ID : 3
Format : AC-3
Format/Info : Audio Coding 3
Mode extension : CM (complete main)
Codec ID : A_AC3
Duration : 2h 1mn
Bit rate mode : Constant
Bit rate : 640 Kbps
Channel(s) : 6 channels
Channel positions : Front: L C R, Side: L R, LFE
Sampling rate : 48.0 KHz
Stream size : 554 MiB (6%)
Title : AVO Карцев @ AC3 6ch @640 kbps
Language : Russian
Audio #3
ID : 4
Format : AC-3
Format/Info : Audio Coding 3
Mode extension : CM (complete main)
Codec ID : A_AC3
Duration : 2h 1mn
Bit rate mode : Constant
Bit rate : 640 Kbps
Channel(s) : 6 channels
Channel positions : Front: L C R, Side: L R, LFE
Sampling rate : 48.0 KHz
Stream size : 554 MiB (6%)
Title : Original @ AC3 6ch @640 kbps
Language : English
Text #1
ID : 5
Format : UTF-8
Codec ID : S_TEXT/UTF8
Codec ID/Info : UTF-8 Plain Text
Title : (* UTF-8)
Language : Russian
Text #2
ID : 6
Format : UTF-8
Codec ID : S_TEXT/UTF8
Codec ID/Info : UTF-8 Plain Text
Title : (* UTF-8)
Language : English
Menu
00:00:00.000 : en:00:00:00.000
00:08:54.200 : en:00:08:54.200
00:18:24.770 : en:00:18:24.770
00:27:32.192 : en:00:27:32.192
00:38:44.322 : en:00:38:44.322
00:44:35.672 : en:00:44:35.672
00:49:34.429 : en:00:49:34.429
00:54:03.031 : en:00:54:03.031
01:00:50.438 : en:01:00:50.438
01:19:39.941 : en:01:19:39.941
01:27:59.816 : en:01:27:59.816
01:35:38.274 : en:01:35:38.274
01:40:21.390 : en:01:40:21.390
01:47:27.566 : en:01:47:27.566
01:52:49.762 : en:01:52:49.762
01:55:34.927 : en:01:55:34.927
Скриншоты
, , , ,
, , , ,
Скачать

Скачать торрент!

Как скачивать? · Что такое торрент? · Рейтинг и ограничения

Сайт не распространяет и не хранит электронные версии произведений, а лишь предоставляет доступ к создаваемому пользователями каталогу ссылок на торрент-файлы, которые содержат только списки хеш-сумм

[Профиль] [ЛС]
Показать сообщения:    
Ответить на тему

Текущее время: Сегодня 07:01

Часовой пояс: GMT + 4



Вы не можете начинать темы
Вы не можете отвечать на сообщения
Вы не можете редактировать свои сообщения
Вы не можете удалять свои сообщения
Вы не можете голосовать в опросах
Вы не можете прикреплять файлы к сообщениям
Вы не можете скачивать файлы