Бадлапур / Badlapur (Шрирам Рагхаван / Sriram Raghavan) [2015, Индия, Триллер, драма, криминал, DVDRip] DVO (DeadSno & den904) + Sub Rus (песни)

Ответить на тему
 
Автор Сообщение

user ®

Стаж: 12 лет

Сообщений: 15092

Пост Пост: #1 от 21-Апр-2015 15:48

[Цитировать]

Бадлапур / BadlapurТопор забывает, но дерево помнит - Страна: Индия
Жанр: Триллер, драма, криминал
Год выпуска: 2015
Продолжительность: 02:09:32-Перевод: Любительский (двухголосый закадровый) - DeadSno & den904
Cубтитры: русские (на песни)--Режиссер: Шрирам Рагхаван / Sriram Raghavan-В ролях: Варун Дхаван , Ями Гаутам, Радхика Апте, Хума Куреши, Навазуддин Сиддикуи, Дивья Датта, Винай Патхак, Закир Хуссейн, Мурали Шарма, Кумунд Мишра--Описание: Рагхав жил спокойно со своей семьёй, пока в один из дней его жена с маленьким сыном не стали жертвами ограбления банка двумя злоумышленниками. Грабители берут в заложники семью Рагхава, угнав машину его жены Миши. Хладнокровно, один из подельников убивает их, а второй сбегает с награбленным добром. Потеряв смысл жизни, главный герой попадает в депрессию, и решает найти убийц своей семьи. Даже спустя 15 лет, его жажда мести ещё не остыла, и ради неё он готов на всё. Рагхав приезжает в Бадлапур, город мести, где начинает свою охоту на каждого, кто был причастен к ограблению.-- --Релиз-группа: &
Творческая озвучка: DeadSno & den904 (спасибо!)
Перевод и редакция: Honey&Haseena (спасибо!)
Переведено и озвучено: при финансовой поддержке Айгерим Маратовой (спасибо!)--Качество видео: DVDRip
Формат видео: AVI-Видео: 720х304 (2.35:1), 23.976 fps, XviD, ~1595 kbps avg, 0.30 bit/pixel
Аудио: 48 kHz, AC3, 2 ch, ~192 kbps-- -
-
MI
Общее
Полное имя : J:\Badlapur.2015.DVDRip.XviD.Kolobok.Honey&Haseena\Badlapur.2015.DVDRip.XviD.Kolobok.Honey&Haseena.avi
Формат : AVI
Формат/Информация : Audio Video Interleave
Профиль формата : OpenDML
Размер файла : 1,63 Гбайт
Продолжительность : 2 ч. 9 м.
Общий поток : 1798 Кбит/сек
Название фильма : Telly Secret Encoder @ (rofl)
Программа кодирования : XviD4PSP 7.0 / 55.33.100
Примечание : MATROSKA,WEBM > AVI DVD Player 720x / H264 > XVID VBR 2000kbps HQ / AC3 > AC3 CBR 192kbps
Видео
Идентификатор : 0
Формат : MPEG-4 Visual
Профиль формата : Advanced Simple@L5
Параметр BVOP формата : 1
Параметр QPel формата : Нет
Параметр GMC формата : Без точки перехода
Параметр матрицы формата : Default (H.263)
Идентификатор кодека : XVID
Идентификатор кодека/Подсказка : XviD
Продолжительность : 2 ч. 9 м.
Битрейт : 1595 Кбит/сек
Ширина : 720 пикселей
Высота : 304 пикселя
Соотношение сторон : 2,35:1
Частота кадров : 23,976 кадра/сек
Цветовое пространство : YUV
Субдискретизация насыщенности : 4:2:0
Битовая глубина : 8 бит
Тип развёртки : Прогрессивная
Метод сжатия : С потерями
Бит/(Пиксели*Кадры) : 0.304
Размер потока : 1,44 Гбайт (89%)
Заголовок : Telly Secret Encoder @ (rofl)
Библиотека кодирования : XviD 64
Аудио
Идентификатор : 1
Формат : AC-3
Формат/Информация : Audio Coding 3
Расширение режима : CM (complete main)
Параметр Endianness формата : Big
Идентификатор кодека : 2000
Продолжительность : 2 ч. 9 м.
Вид битрейта : Постоянный
Битрейт : 192 Кбит/сек
Каналы : 2 канала
Расположение каналов : Front: L R
Частота : 48,0 КГц
Битовая глубина : 16 бит
Метод сжатия : С потерями
Размер потока : 178 Мбайт (11%)
Выравнивание : Соединение по промежуткам
Продолжительность промежутка : 32 мс. (0,77 видеокадр)
Общее
Полное имя : J:\Badlapur.2015.DVDRip.XviD.Kolobok.Honey&Haseena\Badlapur.2015.DVDRip.XviD.Kolobok.Honey&Haseena.song.srt
Формат : SubRip
Размер файла : 15,3 Кбайт
Текст
Формат : SubRip
Метод сжатия : Без потерь
Скриншот c названием фильма Скриншоты
Скачать

Скачать торрент! Бадлапур / Badlapur (Шрирам Рагхаван / Sriram Raghavan) [2015, Индия, Триллер, драма, криминал, DVDRip] DVO (DeadSno & den904) + Sub Rus (песни)

Как скачивать? · Что такое торрент? · Рейтинг и ограничения

Сайт не распространяет и не хранит электронные версии произведений, а лишь предоставляет доступ к создаваемому пользователями каталогу ссылок на торрент-файлы, которые содержат только списки хеш-сумм

[Профиль] [ЛС]
Показать сообщения:    
Ответить на тему

Текущее время: Сегодня 03:14

Часовой пояс: GMT + 4



Вы не можете начинать темы
Вы не можете отвечать на сообщения
Вы не можете редактировать свои сообщения
Вы не можете удалять свои сообщения
Вы не можете голосовать в опросах
Вы не можете прикреплять файлы к сообщениям
Вы не можете скачивать файлы