Всегда готов! / Ready (Шрину Витья / Sreenu Vaitla) [2008, Индия, Комедия, романтика, DVDRip] Sub Rus + Original (telugu)

Ответить на тему
 
Автор Сообщение

user ®

Стаж: 12 лет

Сообщений: 15092

Пост Пост: #1 от 20-Апр-2015 15:03

[Цитировать]

Всегда готов! / Ready- Страна: Индия
Жанр: Комедия, романтика
Год выпуска: 2008
Продолжительность: 02:53:02--Язык: Телугу
Перевод: Субтитры
Cубтитры: русские (Ushki)--Режиссер: Шрину Витья / Sreenu Vaitla-В ролях: Рам, Дженелия Д`Суза, Таникелла Бхавани, Нассер, Сунил, М.С. Нарьяна, Сатья, Судха, Навдип, Таманна Бхатия--Описание: Простой парень Чанду живет в большой семье. Однажды он помог кузине сбежать со свадьбы и родные отвернулись от него.
Однажды Чанду увидел девушку в джипе и влюбился в неё. В это же время его друг просит украсть его невесту со свадьбы. Провернув это нелегкое дело Чанду привозит девушку к другу. Как же он был удивлен, когда понял, что друзья перепутали невест. И то что украденная девушка и есть его возлюбленная.-- --Релиз-группа:
Перевод: Ushki (спасибо!)--Качество видео: DVDRip
Формат видео: AVI-Видео: 688x288 (2.40:1), 23.976 fps, XviD, ~1065 kbps avg, 0.22 bit/pixel
Аудио: 48 kHz, МР3, 2 ch, ~128 kbps-- -
-
MI
Общее
Полное имя : J:\Vsegda.gotov.2008.DVDRip.XviD.BwTorrents\Vsegda.gotov.2008.DVDRip.XviD.BwTorrents.avi
Формат : AVI
Формат/Информация : Audio Video Interleave
Размер файла : 1,45 Гбайт
Продолжительность : 2 ч. 53 м.
Общий поток : 1202 Кбит/сек
Программа кодирования : VirtualDubMod 1.5.10.2 (build 2542/release)
Библиотека кодирования : VirtualDubMod build 2542/release
Видео
Идентификатор : 0
Формат : MPEG-4 Visual
Профиль формата : Advanced Simple@L5
Параметр BVOP формата : 2
Параметр QPel формата : Да
Параметр GMC формата : Без точки перехода
Параметр матрицы формата : Default (H.263)
Идентификатор кодека : XVID
Идентификатор кодека/Подсказка : XviD
Продолжительность : 2 ч. 53 м.
Битрейт : 1065 Кбит/сек
Ширина : 688 пикселей
Высота : 288 пикселей
Соотношение сторон : 2,40:1
Частота кадров : 23,976 кадра/сек
Цветовое пространство : YUV
Субдискретизация насыщенности : 4:2:0
Битовая глубина : 8 бит
Тип развёртки : Прогрессивная
Метод сжатия : С потерями
Бит/(Пиксели*Кадры) : 0.224
Размер потока : 1,29 Гбайт (89%)
Библиотека кодирования : XviD 1.2.1 (UTC 2008-12-04)
Аудио
Идентификатор : 1
Формат : MPEG Audio
Версия формата : Version 1
Профиль формата : Layer 3
Режим : Joint stereo
Расширение режима : MS Stereo
Идентификатор кодека : 55
Идентификатор кодека/Подсказка : MP3
Продолжительность : 2 ч. 53 м.
Вид битрейта : Постоянный
Битрейт : 128 Кбит/сек
Каналы : 2 канала
Частота : 48,0 КГц
Метод сжатия : С потерями
Размер потока : 158 Мбайт (11%)
Выравнивание : Разделение по промежуткам
Продолжительность промежутка : 42 мс. (1,00 видеокадр)
Время предзагрузки промежутка : 500 мс.
Библиотека кодирования : LAME3.98r
Настройки программы : -m j -V 4 -q 2 -lowpass 17 -b 128
Общее
Полное имя : J:\Vsegda.gotov.2008.DVDRip.XviD.BwTorrents\Vsegda.gotov.2008.DVDRip.XviD.BwTorrents.srt
Формат : SubRip
Размер файла : 266 Кбайт
Текст
Формат : SubRip
Метод сжатия : Без потерь

-
пример субтитров
10
00:00:40,070 --> 00:00:42,130
Его имя Рагхупати. Старший в этой семье.
11
00:00:42,340 --> 00:00:45,100
Он имеет близкую связь с Суперзвездой Кришной.
12
00:00:45,310 --> 00:00:47,870
Он Eluru CR Reddy College,
13
00:00:48,080 --> 00:00:50,810
Кришна учился в этом колледже, потом уже стал суперзвездой.
14
00:00:51,010 --> 00:00:54,470
Он учился в колледже и ходил в театральный кружок.
15
00:00:54,680 --> 00:00:59,280
Это его неудача или наша удача,
что он не снимается в больших фильмах.
16
00:00:59,490 --> 00:01:02,120
Бананы из Кадияма не очень спелые.
- Что ты хочешь чтобы я сделал?
17
00:01:02,320 --> 00:01:06,280
Отправить их обратно на рынок? Отнеси их в зал.
18
00:01:06,490 --> 00:01:09,050
Как он саркастичен! Это Рагхава.
19
00:01:09,260 --> 00:01:10,890
Он любит делать замечания.
20
00:01:11,130 --> 00:01:13,730
Он любит своего брата также как и сарказм.

-
Скриншот c названием фильма
-
Скриншоты -
Скачать

Скачать торрент! Всегда готов! / Ready (Шрину Витья / Sreenu Vaitla) [2008, Индия, Комедия, романтика, DVDRip] Sub Rus + Original (telugu)

Как скачивать? · Что такое торрент? · Рейтинг и ограничения

Сайт не распространяет и не хранит электронные версии произведений, а лишь предоставляет доступ к создаваемому пользователями каталогу ссылок на торрент-файлы, которые содержат только списки хеш-сумм

[Профиль] [ЛС]
Показать сообщения:    
Ответить на тему

Текущее время: Сегодня 14:42

Часовой пояс: GMT + 4



Вы не можете начинать темы
Вы не можете отвечать на сообщения
Вы не можете редактировать свои сообщения
Вы не можете удалять свои сообщения
Вы не можете голосовать в опросах
Вы не можете прикреплять файлы к сообщениям
Вы не можете скачивать файлы