Младший брат / My Second Brother / Nianchan (Сёхэй Имамура / Shohei Imamura) [1960, Япония, драма, DVDRip] Sub Rus

Ответить на тему
 
Автор Сообщение

user ®

Стаж: 13 лет

Сообщений: 15071

Пост Пост: #1 от 19-Апр-2015 23:36

[Цитировать]

Младший брат / My Second Brother / Nianchan / にあんちゃん
Страна: Япония
Жанр: драма
Год выпуска: 1960
Продолжительность: 01:41:11
Перевод: Субтитры русские - [url=http://***/forum/tracker.php?rid=6473541]дед_сто_лет[/url]©
Оригинальная аудиодорожка: японский
Режиссер: [url=http://***/forum/tracker.php?nm=Shohei%20Imamura]Сёхэй Имамура / Shohei Imamura[/url]
В ролях: [url=http://***/forum/viewtopic.php?p=48960740#48960740]Хироюки НАГАТО[/url], Кадзуко ЁСИЮКИ, Хидэаки НИТАНИ, Такэси ОКИМУРА, Акико МАЭДА, Каё МАЦУО, [url=http://***/forum/viewtopic.php?t=4978883]Таниэ КИТАБАЯСИ[/url], Синскэ АСИДА, Ко НИСИМУРА, Сёити ОДЗАВА, [url=http://***/forum/viewtopic.php?t=4012038]Тайдзи ТОНОЯМА[/url], Акира ЯМАУТИ, Ёсио ООМОРИ, Хитоси ТАКАГИ, Хисано ЯМАОКА, Ходзуми ТАКАНОБУ, Дзюн ХАМАМУРА, Сомэсё МАЦУМОТО, Хидэо ФУКУХАРА, Бумон КАХАРА, Ёсико МАКИ, Тосио ТАКАХАРА, Нобуо КАВАКАМИ, Хидэдзи ООТАКИ, Дзюн ХОНГО, Каору ЯМАМОТО, Тигуса ТАКАЯМА, Акэми КАЁ, Кэйко ТАНАКА, Харуо ЯМАМОТО, Масако УРУСИДЗАВА, Тоору СУМИКАВА, Макото ФУКУМОТО, Тадаси ОКАМУРА, Хамаэ ЭНОКИ
Описание: По автобиографической книге Суэко Ясумото. После смерти кормильца в маленьком шахтерском городке остаются четверо детей без средств к существованию. Шахты терпят убытки, работы в городке нет. Старшие дети уезжают на заработки. Младшим приходится выживать самим.©
Посмотрите фильмы о детях, которые выживают без родителей:
[url=http://***/forum/viewtopic.php?t=4962350]Мать / Mother / Haha - 1988[/url]
[url=http://***/forum/viewtopic.php?t=4978883]Кику и Исаму / Kiku and Isamu - 1959[/url]
[url=http://***/forum/viewtopic.php?t=4496776]Вот и осень / Autumn Has Already Started / Aki tachinu - 1960[/url]
[url=http://***/forum/viewtopic.php?t=4331093]Обнаженные девятнадцатилетние / Hadaka no Jukyu-sai - 1970[/url]
> > > > >
Качество видео: DVDRip
Формат видео: AVI
Видео: 640x272 (2.35:1), 23.976 fps, XviD Codec 1.0 RC4 (build 30) ~858 kbps avg, 0.21 bit/pixel
Аудио: 48 kHz, MPEG Layer 3, 1 ch, ~128.00 kbps avg
Формат субтитров: softsub (SRT)
Доп. информация о субтитрах: дед_сто_лет
MediaInfo
General
Complete name : C:\...\Nianchan(1959)Shohei.Imamura\Nianchan(1959)Shohei.Imamura.avi
Format : AVI
Format/Info : Audio Video Interleave
File size : 721 MiB
Duration : 1h 41mn
Overall bit rate : 996 Kbps
Writing application : Nandub v1.0rc2
Writing library : VirtualDub-MPEG2 build 24600/release
Video
ID : 0
Format : MPEG-4 Visual
Format profile : Advanced Simple@L5
Format settings, BVOP : No
Format settings, QPel : No
Format settings, GMC : No warppoints
Format settings, Matrix : Default (MPEG)
Codec ID : XVID
Codec ID/Hint : XviD
Duration : 1h 41mn
Bit rate : 859 Kbps
Width : 640 pixels
Height : 272 pixels
Display aspect ratio : 2.35:1
Frame rate : 23.976 fps
Color space : YUV
Chroma subsampling : 4:2:0
Bit depth : 8 bits
Scan type : Progressive
Compression mode : Lossy
Bits/(Pixel*Frame) : 0.206
Stream size : 622 MiB (86%)
Writing library : XviD 1.0.0 RC4 (Hola) (UTC 2004-04-05)
Audio
ID : 1
Format : MPEG Audio
Format version : Version 1
Format profile : Layer 3
Codec ID : 55
Codec ID/Hint : MP3
Duration : 1h 41mn
Bit rate mode : Constant
Bit rate : 128 Kbps
Channel(s) : 1 channel
Sampling rate : 48.0 KHz
Compression mode : Lossy
Stream size : 92.6 MiB (13%)
Alignment : Split accross interleaves
Interleave, duration : 42 ms (1.00 video frame)
Interleave, preload duration : 500 ms
Скриншот c названием фильма Скриншоты
Скачать

Скачать торрент! Младший брат / My Second Brother / Nianchan (Сёхэй Имамура / Shohei Imamura) [1960, Япония, драма, DVDRip] Sub Rus

Как скачивать? · Что такое торрент? · Рейтинг и ограничения

Сайт не распространяет и не хранит электронные версии произведений, а лишь предоставляет доступ к создаваемому пользователями каталогу ссылок на торрент-файлы, которые содержат только списки хеш-сумм

[Профиль] [ЛС]
Показать сообщения:    
Ответить на тему

Текущее время: Сегодня 20:49

Часовой пояс: GMT + 4



Вы не можете начинать темы
Вы не можете отвечать на сообщения
Вы не можете редактировать свои сообщения
Вы не можете удалять свои сообщения
Вы не можете голосовать в опросах
Вы не можете прикреплять файлы к сообщениям
Вы не можете скачивать файлы