Неисполненное желание / Kasak (К. Бапайя / K. Bapaiah) [1992, Индия, Мелодрама, DVDRip] VO

Ответить на тему
 
Автор Сообщение

user ®

Стаж: 12 лет

Сообщений: 15092

Пост Пост: #1 от 19-Апр-2015 23:36

[Цитировать]

Неисполненное желание / Kasak
Страна: Индия
Жанр: Мелодрама
Год выпуска: 1992
Продолжительность: 02:24:19
Перевод: Одноголосый закадровый
Cубтитры: русские (вшитые, на вырезанных фрагментах)
Оригинальная аудиодорожка: хинди
Режиссер: К. Бапайя / K. Bapaiah
В ролях: Нилам Котхари, Риши Капур, Чанки Пандей, Кадер Кхан, Аруна Ирани
Описание: Молодая девушка Дивья, студентка колледжа живет с любящими родителями и сестрами, пока однажды родители не решили выдать ее замуж, и уже подыскали ей богатого жениха. Девушка ответила отказом, но жених все-таки пришел знакомиться с нареченной и влюбился в нее с первого взгляда. Под давлением родителей Дивье пришлось выйти за нелюбимого замуж. Новый шикарный дом, любящий муж, но молодая жена ходит мрачнее тучи, и все попытки мужа растормошить ее безуспешны. В чем же причина? Выяснилось, что Дивья была влюблена в молодого парня, мятежного защитника справедливости, но тот погиб от шальной пули. И сердце Дивьи умерло вместе с любимым…
Доп. информация:
Сведение звука: Vik555 (Спасибо!)
Перевод субтитров на вырезанные сцены: керелис (Спасибо!)
Риппер, редактор субтитров: Nilda&inari15
Субтитры появляются ближе к концу фильма: ~ с 02:05:59 - 02:06:42, ~ 02:14:15 - 02:15:23, ~02:20:49 - 2:21:00.
Сэмпл: http://multi-up.com/1044549
Качество видео: DVDRip
Формат видео: AVI
Видео: XviD build 50, 704x528 (1.33:1), 29.970 fps, 1498 kbps avg
Аудио: Rus AC3 Dolby Digital, 48 kHz, 2/0 (L,R) ch, 192.00 kbps avg
Аудио 2: Hindi MPEG Layer 3, 48 kHz, 2/0 (L,R) ch, 192.00 kbps
MediaInfo
General
Complete name : F:\Neispolnennoe.Zhelanie.1992.DVDRip.XviD.BwTorrents.avi
Format : AVI
Format/Info : Audio Video Interleave
File size : 1.92 GiB
Duration : 2h 24mn
Overall bit rate : 1 901 Kbps
Writing application : VirtualDubMod 1.5.10.2 (build 2542/release)
Writing library : VirtualDubMod build 2542/release
Video
ID : 0
Format : MPEG-4 Visual
Format profile : AdvancedSimple@L5
Format settings, BVOP : Yes
Format settings, QPel : No
Format settings, GMC : No warppoints
Format settings, Matrix : Default (H.263)
Codec ID : XVID
Codec ID/Hint : XviD
Duration : 2h 24mn
Bit rate : 1 499 Kbps
Width : 704 pixels
Height : 528 pixels
Display aspect ratio : 4/3
Frame rate : 29.970 fps
Resolution : 24 bits
Colorimetry : 4:2:0
Scan type : Progressive
Bits/(Pixel*Frame) : 0.135
Stream size : 1.51 GiB (79%)
Writing library : XviD 1.2.1 (UTC 2008-12-04)
Audio #1
ID : 1
Format : AC-3
Format/Info : Audio Coding 3
Codec ID : 2000
Duration : 2h 24mn
Bit rate mode : Constant
Bit rate : 192 Kbps
Channel(s) : 2 channels
Channel positions : L R
Sampling rate : 48.0 KHz
Stream size : 198 MiB (10%)
Alignment : Split accross interleaves
Interleave, duration : 33 ms (1.00 video frame)
Interleave, preload duration : 500 ms
Audio #2
ID : 2
Format : MPEG Audio
Format version : Version 1
Format profile : Layer 3
Codec ID : 55
Codec ID/Hint : MP3
Duration : 2h 24mn
Bit rate mode : Constant
Bit rate : 192 Kbps
Channel(s) : 2 channels
Sampling rate : 48.0 KHz
Resolution : 16 bits
Stream size : 198 MiB (10%)
Alignment : Aligned on interleaves
Interleave, duration : 33 ms (1.00 video frame)
Interleave, preload duration : 504 ms
Writing library : LAME3.98r
Encoding settings : -m j -V 4 -q 2 -lowpass 18.6 -b 192
Скриншоты
Скачать

Скачать торрент! Неисполненное желание / Kasak (К. Бапайя / K. Bapaiah) [1992, Индия, Мелодрама, DVDRip] VO

Как скачивать? · Что такое торрент? · Рейтинг и ограничения

Сайт не распространяет и не хранит электронные версии произведений, а лишь предоставляет доступ к создаваемому пользователями каталогу ссылок на торрент-файлы, которые содержат только списки хеш-сумм

[Профиль] [ЛС]
Показать сообщения:    
Ответить на тему

Текущее время: Сегодня 12:18

Часовой пояс: GMT + 4



Вы не можете начинать темы
Вы не можете отвечать на сообщения
Вы не можете редактировать свои сообщения
Вы не можете удалять свои сообщения
Вы не можете голосовать в опросах
Вы не можете прикреплять файлы к сообщениям
Вы не можете скачивать файлы