Любовь превыше всего / Arjun Pandit (Рахул Равайл / Rahul Rawail) [1999, Индия, Боевик, мелодрама, DVDRip] DVO (Арена)

Ответить на тему
 
Автор Сообщение

user ®

Стаж: 12 лет

Сообщений: 15092

Пост Пост: #1 от 19-Апр-2015 17:24

[Цитировать]

Любовь превыше всего / Arjun Pandit
Страна: Индия
Жанр: Боевик, мелодрама
Год выпуска: 1999
Продолжительность: 02:35:04
Перевод: Любительский (двухголосый закадровый) Арена
Cубтитры: нет
Оригинальная аудиодорожка: хинди
Режиссер: Рахул Равайл / Rahul Rawail
В ролях: Санни Деол, Джухи Чавла, Саурабх Шукла, Мукеш Риши, Ашиш Видьятхи, Анну Капур, Далер Мехнди, Яшпал Шарма, Сачин Кхедекар, Паллави Кулкарни
Описание: Профессор филологии Арджун Диксит ведет спокойную, размеренную жизнь, пока однажды в университете не появляется молодая аспирантка Ниша. Головокружительный роман полностью меняет жизнь профессора и приводит к непредсказуемым и жестоким последствиям...
Доп. информация:
Рип и русская дорожка от innnna (Спасибо!)
Работа со звуком - Алёна (Спасибо!)
Сэмпл: http://multi-up.com/1044455
Качество видео: DVDRip
Формат видео: AVI
Видео: XviD build 50, 720x384 (1.88:1), 23.976 fps, 1635 kbps avg
Аудио: Rus AC3 Dolby Digital, 48 kHz, 2/0 (L,R) ch, 192.00 kbps avg
Аудио 2: Hindi AC3 Dolby Digital, 48 kHz, 3/2 (L,C,R,l,r) + LFE ch, 384.00 kbps
MediaInfo
General
Complete name : F:\Lubov.Previshe.Vsego.1999.DVDRip.XviD.BwTorrents.avi
Format : AVI
Format/Info : Audio Video Interleave
Format profile : OpenDML
File size : 2.40 GiB
Duration : 2h 35mn
Overall bit rate : 2 219 Kbps
Writing application : VirtualDubModRus 1.5.10.2 (build 2542/release)
Writing library : VirtualDubMod build 2542/release
Video
ID : 0
Format : MPEG-4 Visual
Format profile : AdvancedSimple@L5
Format settings, BVOP : Yes
Format settings, QPel : Yes
Format settings, GMC : No warppoints
Format settings, Matrix : Default (H.263)
Codec ID : XVID
Codec ID/Hint : XviD
Duration : 2h 35mn
Bit rate : 1 626 Kbps
Width : 720 pixels
Height : 384 pixels
Display aspect ratio : 1.875
Frame rate : 23.976 fps
Resolution : 24 bits
Colorimetry : 4:2:0
Scan type : Progressive
Bits/(Pixel*Frame) : 0.245
Stream size : 1.76 GiB (73%)
Writing library : XviD 1.2.1 (UTC 2008-12-04)
Audio #1
ID : 1
Format : AC-3
Format/Info : Audio Coding 3
Codec ID : 2000
Duration : 2h 35mn
Bit rate mode : Constant
Bit rate : 192 Kbps
Channel(s) : 2 channels
Channel positions : L R
Sampling rate : 48.0 KHz
Stream size : 213 MiB (9%)
Alignment : Split accross interleaves
Interleave, duration : 42 ms (1.00 video frame)
Interleave, preload duration : 500 ms
Audio #2
ID : 2
Format : AC-3
Format/Info : Audio Coding 3
Codec ID : 2000
Duration : 2h 35mn
Bit rate mode : Constant
Bit rate : 384 Kbps
Channel(s) : 6 channels
Channel positions : Front: L C R, Surround: L R, LFE
Sampling rate : 48.0 KHz
Stream size : 426 MiB (17%)
Alignment : Split accross interleaves
Interleave, duration : 42 ms (1.00 video frame)
Interleave, preload duration : 500 ms
Скриншоты
Скачать

Скачать торрент! Любовь превыше всего / Arjun Pandit (Рахул Равайл / Rahul Rawail) [1999, Индия, Боевик, мелодрама, DVDRip] DVO (Арена)

Как скачивать? · Что такое торрент? · Рейтинг и ограничения

Сайт не распространяет и не хранит электронные версии произведений, а лишь предоставляет доступ к создаваемому пользователями каталогу ссылок на торрент-файлы, которые содержат только списки хеш-сумм

[Профиль] [ЛС]
Показать сообщения:    
Ответить на тему

Текущее время: Сегодня 01:32

Часовой пояс: GMT + 4



Вы не можете начинать темы
Вы не можете отвечать на сообщения
Вы не можете редактировать свои сообщения
Вы не можете удалять свои сообщения
Вы не можете голосовать в опросах
Вы не можете прикреплять файлы к сообщениям
Вы не можете скачивать файлы