Чёрное море / Black Sea (Кевин МакДональд / Kevin Macdonald) [2014, Великобритания, США, Россия, триллер, приключения, BDRip 720p] MVO + Sub Rus, Eng + Original Eng

Ответить на тему
 
Автор Сообщение

user ®

Стаж: 7 лет 7 месяцев

Сообщений: 20008

Пост Пост: #1 от 19-Апр-2015 17:24

[Цитировать]

Чёрное море / Black Sea Страна: Великобритания, США, Россия
Студия: Focus Features, Film4, Cowboy Films
Жанр: триллер, приключения
Год выпуска: 2014
Продолжительность: 01:54:42
Перевод: Профессиональный (многоголосый закадровый) R5
Cубтитры: русские, английские(full, SDH, Commentary)
Оригинальная аудиодорожка: английский
Режиссер: Кевин МакДональд / Kevin Macdonald
В ролях: Джуд Лоу, Константин Хабенский, Скут МакНэйри, Бен Мендельсон, Джоди Уиттакер, Тобайас Мензис, Григорий Добрыгин, Паулина Бонева, Джун Смит, Дэвид Трелфолл, Майкл Смайли
Описание: К уволенному капитану подводной лодки обращается таинственный наниматель с предложением возглавить экспедицию по поиску затонувшей у берегов Чёрного моря субмарины, предположительно загруженной золотом. Желая подзаработать на этом деле и отомстить бывшему работодателю, капитан собирает команду из русских и английских моряков и отправляется в плавание, но вскоре понимает, в какое рискованное предприятие ввязался.

Тип релиза: BDRip 720p [iNK]
Контейнер: MKV
Видео: AVC, 1280x534, 4830Kbps, 23.976 fps
Аудио 1: Russian: 48 kHz, AC3, 3/2 (L,C,R,l,r) + LFE ch, ~448.00 kbps avg |R5|
Аудио 2: English: 48 kHz, AC3, 3/2 (L,C,R,l,r) + LFE ch, ~640.00 kbps |Original|
Аудио 3: English: 48 kHz, AC3, 2/0 (L,R) ch, ~192.00 kbps avg |Commentary with Director Kevin Macdonald|
Чаптеры: есть

x264 log
x264 [info]: frame I:1306 Avg QP:13.49 size: 94981
x264 [info]: frame P:35426 Avg QP:14.64 size: 48454
x264 [info]: frame B:128283 Avg QP:17.20 size: 18699
x264 [info]: consecutive B-frames: 2.1% 2.2% 8.5% 17.2% 17.1% 42.4% 6.6% 1.7% 2.1%
encoded 165015 frames, 8.203 fps, 4927.72 kb/s, 4043.0 MB
MediaInfo
General
Unique ID : 204230697168621240333849028113981750977 (0x99A566CA4718032A8DFA7EAFC247BEC1)
Complete name : D:\\Black.Sea.2014.720p.BluRay.DD5.1.x264-Talian-.mkv
Format : Matroska
Format version : Version 2
File size : 4.98 GiB
Duration : 1h 54mn
Overall bit rate : 6 210 Kbps
Movie name : Black Sea-Talian-
Encoded date : UTC 2015-04-18 12:47:39
Writing application : mkvmerge v5.7.0 ('The Whirlwind') built on Jul 8 2012 20:08:51
Writing library : libebml v1.2.3 + libmatroska v1.3.0
Video
ID : 1
Format : AVC
Format/Info : Advanced Video Codec
Format profile : High@L4.1
Format settings, CABAC : Yes
Format settings, ReFrames : 12 frames
Codec ID : V_MPEG4/ISO/AVC
Duration : 1h 54mn
Bit rate : 4 807 Kbps
Width : 1 280 pixels
Height : 534 pixels
Display aspect ratio : 2.40:1
Frame rate : 23.976 fps
Color space : YUV
Chroma subsampling : 4:2:0
Bit depth : 8 bits
Scan type : Progressive
Bits/(Pixel*Frame) : 0.293
Stream size : 3.85 GiB (77%)
Title : iNK
Writing library : x264 core 142 r2431+42 c69a006 tMod [8-bit@4:2:0 X86_64]
Encoding settings : cabac=1 / ref=12 / deblock=1:-3:-3 / analyse=0x3:0x113 / me=umh / subme=11 / psy=1 / fade_compensate=0.00 / psy_rd=1.00:0.00 / mixed_ref=1 / me_range=32 / chroma_me=1 / trellis=2 / 8x8dct=1 / cqm=0 / deadzone=21,11 / fast_pskip=0 / chroma_qp_offset=-4 / threads=12 / lookahead_threads=2 / sliced_threads=0 / nr=0 / decimate=0 / interlaced=0 / bluray_compat=0 / constrained_intra=0 / fgo=0 / bframes=8 / b_pyramid=2 / b_adapt=2 / b_bias=0 / direct=3 / weightb=1 / open_gop=0 / weightp=2 / keyint=250 / keyint_min=23 / scenecut=40 / intra_refresh=0 / rc_lookahead=60 / rc=crf / mbtree=0 / crf=16.4000 / qcomp=0.75 / qpmin=0:0:0 / qpmax=69:69:69 / qpstep=4 / vbv_maxrate=62500 / vbv_bufsize=78125 / crf_max=0.0 / nal_hrd=none / filler=0 / ip_ratio=1.30 / pb_ratio=1.30 / aq=4:0.80 / aq-sensitivity=10.00 / aq-factor=1.00:1.00:1.00 / aq2=0 / aq3=0
Language : English
Default : Yes
Forced : No
Audio #1
ID : 2
Format : AC-3
Format/Info : Audio Coding 3
Mode extension : CM (complete main)
Format settings, Endianness : Big
Codec ID : A_AC3
Duration : 1h 54mn
Bit rate mode : Constant
Bit rate : 448 Kbps
Channel(s) : 6 channels
Channel positions : Front: L C R, Side: L R, LFE
Sampling rate : 48.0 KHz
Bit depth : 16 bits
Compression mode : Lossy
Stream size : 368 MiB (7%)
Title : MVO-R5
Language : Russian
Default : Yes
Forced : No
Audio #2
ID : 3
Format : AC-3
Format/Info : Audio Coding 3
Mode extension : CM (complete main)
Format settings, Endianness : Big
Codec ID : A_AC3
Duration : 1h 54mn
Bit rate mode : Constant
Bit rate : 640 Kbps
Channel(s) : 6 channels
Channel positions : Front: L C R, Side: L R, LFE
Sampling rate : 48.0 KHz
Bit depth : 16 bits
Compression mode : Lossy
Stream size : 525 MiB (10%)
Title : Original
Language : English
Default : No
Forced : No
Audio #3
ID : 4
Format : AC-3
Format/Info : Audio Coding 3
Format profile : Dolby Digital
Mode extension : CM (complete main)
Format settings, Endianness : Big
Codec ID : A_AC3
Duration : 1h 54mn
Bit rate mode : Constant
Bit rate : 192 Kbps
Channel(s) : 2 channels
Channel positions : Front: L R
Sampling rate : 48.0 KHz
Bit depth : 16 bits
Compression mode : Lossy
Stream size : 158 MiB (3%)
Title : Commentary with Director Kevin Macdonald
Language : English
Default : No
Forced : No
Text #1
ID : 5
Format : UTF-8
Codec ID : S_TEXT/UTF8
Codec ID/Info : UTF-8 Plain Text
Title : Sub
Language : Russian
Default : No
Forced : No
Text #2
ID : 6
Format : UTF-8
Codec ID : S_TEXT/UTF8
Codec ID/Info : UTF-8 Plain Text
Title : Sub-full
Language : English
Default : No
Forced : No
Text #3
ID : 7
Format : UTF-8
Codec ID : S_TEXT/UTF8
Codec ID/Info : UTF-8 Plain Text
Title : Sub-SDH
Language : English
Default : No
Forced : No
Text #4
ID : 8
Format : UTF-8
Codec ID : S_TEXT/UTF8
Codec ID/Info : UTF-8 Plain Text
Title : Sub-Commentary
Language : English
Default : No
Forced : No
Menu
00:00:00.000 : en:00:00:00.000
00:05:24.032 : en:00:05:24.032
00:11:49.042 : en:00:11:49.042
00:15:59.625 : en:00:15:59.625
00:22:24.843 : en:00:22:24.843
00:29:22.135 : en:00:29:22.135
00:37:14.774 : en:00:37:14.774
00:41:27.110 : en:00:41:27.110
00:46:00.675 : en:00:46:00.675
00:50:50.756 : en:00:50:50.756
00:55:32.663 : en:00:55:32.663
01:02:56.231 : en:01:02:56.231
01:10:54.959 : en:01:10:54.959
01:15:01.247 : en:01:15:01.247
01:19:49.326 : en:01:19:49.326
01:24:56.300 : en:01:24:56.300
01:31:15.929 : en:01:31:15.929
01:35:18.421 : en:01:35:18.421
01:43:09.266 : en:01:43:09.266
01:50:36.755 : en:01:50:36.755
Скриншоты
Source vs Encode


Скачать

Скачать торрент!

Как скачивать? · Что такое торрент? · Рейтинг и ограничения

Сайт не распространяет и не хранит электронные версии произведений, а лишь предоставляет доступ к создаваемому пользователями каталогу ссылок на торрент-файлы, которые содержат только списки хеш-сумм

[Профиль] [ЛС]
Показать сообщения:    
Ответить на тему

Текущее время: Сегодня 19:40

Часовой пояс: GMT + 4



Вы не можете начинать темы
Вы не можете отвечать на сообщения
Вы не можете редактировать свои сообщения
Вы не можете удалять свои сообщения
Вы не можете голосовать в опросах
Вы не можете прикреплять файлы к сообщениям
Вы не можете скачивать файлы