Чёрное море / Black Sea (Кевин МакДональд / Kevin Macdonald) [2014, Великобритания, США, Россия, триллер, приключения, BDRip 1080p] MVO + Sub Rus, Eng + Original Eng

Ответить на тему
 
Автор Сообщение

user ®

Стаж: 7 лет 7 месяцев

Сообщений: 20008

Пост Пост: #1 от 19-Апр-2015 17:24

[Цитировать]

Чёрное море / Black Sea Страна: Великобритания, США, Россия
Студия: Focus Features, Film4, Cowboy Films
Жанр: триллер, приключения
Год выпуска: 2014
Продолжительность: 01:54:42
Перевод: Профессиональный (многоголосый закадровый) R5
Cубтитры: русские, английские(full, SDH, Commentary)
Оригинальная аудиодорожка: английский
Режиссер: Кевин МакДональд / Kevin Macdonald
В ролях: Джуд Лоу, Константин Хабенский, Скут МакНэйри, Бен Мендельсон, Джоди Уиттакер, Тобайас Мензис, Григорий Добрыгин, Паулина Бонева, Джун Смит, Дэвид Трелфолл, Майкл Смайли
Описание: К уволенному капитану подводной лодки обращается таинственный наниматель с предложением возглавить экспедицию по поиску затонувшей у берегов Чёрного моря субмарины, предположительно загруженной золотом. Желая подзаработать на этом деле и отомстить бывшему работодателю, капитан собирает команду из русских и английских моряков и отправляется в плавание, но вскоре понимает, в какое рискованное предприятие ввязался.

Тип релиза: BDRip 1080p [VietHD]
Контейнер: MKV
Видео: AVC, 1920x800, 12800Kbps, 23.976 fps
Аудио 1: Russian: 48 kHz, AC3, 3/2 (L,C,R,l,r) + LFE ch, ~448.00 kbps avg |R5|
Аудио 2: English: 48 kHz, DTS, 3/2 (L,C,R,l,r) + LFE ch, ~1536.00 kbps avg |Original|
Аудио 3: English: 48 kHz, AC3, 2/0 (L,R) ch, ~192.00 kbps avg |Commentary with Director Kevin Macdonald|
Чаптеры: есть

MediaInfo
General
Unique ID : 194250151464171120244719955637528114486 (0x922337E52C6B791192DA7C012E373536)
Complete name : D:\\Black Sea 2014.1080p.BluRay.DTS.x264-Talian-.mkv
Format : Matroska
Format version : Version 2
File size : 12.2 GiB
Duration : 1h 54mn
Overall bit rate : 15.3 Mbps
Movie name : Black Sea-Talian-
Encoded date : UTC 2015-04-18 14:44:44
Writing application : mkvmerge v5.7.0 ('The Whirlwind') built on Jul 8 2012 20:08:51
Writing library : libebml v1.2.3 + libmatroska v1.3.0
Video
ID : 1
Format : AVC
Format/Info : Advanced Video Codec
Format profile : High@L4.1
Format settings, CABAC : Yes
Format settings, ReFrames : 5 frames
Codec ID : V_MPEG4/ISO/AVC
Duration : 1h 54mn
Bit rate : 12.8 Mbps
Width : 1 920 pixels
Height : 800 pixels
Display aspect ratio : 2.40:1
Original display aspect ratio : 2.40:1
Frame rate : 23.976 fps
Color space : YUV
Chroma subsampling : 4:2:0
Bit depth : 8 bits
Scan type : Progressive
Bits/(Pixel*Frame) : 0.348
Stream size : 10.3 GiB (84%)
Title : VietHD
Writing library : x264 core 146 r2538kMod 121396c
Encoding settings : cabac=1 / ref=5 / deblock=1:-3:-3 / analyse=0x3:0x133 / me=umh / subme=10 / psy=1 / fade_compensate=0.00 / psy_rd=1.08:0.00 / mixed_ref=1 / me_range=24 / chroma_me=1 / trellis=2 / 8x8dct=1 / cqm=0 / deadzone=21,11 / fast_pskip=1 / chroma_qp_offset=-2 / threads=24 / lookahead_threads=6 / sliced_threads=0 / nr=0 / decimate=1 / interlaced=0 / bluray_compat=0 / constrained_intra=0 / fgo=0 / bframes=11 / b_pyramid=2 / b_adapt=2 / b_bias=0 / direct=3 / weightb=1 / open_gop=0 / weightp=2 / keyint=250 / keyint_min=23 / scenecut=40 / intra_refresh=0 / rc=crf / mbtree=0 / crf=16.5000 / qcomp=0.65 / qpmin=0 / qpmax=69 / qpstep=4 / ip_ratio=1.30 / pb_ratio=1.20 / aq=3:0.68
Language : English
Default : Yes
Forced : No
Matrix coefficients : BT.709-5, BT.1361, IEC 61966-2-4 709, SMPTE RP177
Audio #1
ID : 2
Format : AC-3
Format/Info : Audio Coding 3
Mode extension : CM (complete main)
Format settings, Endianness : Big
Codec ID : A_AC3
Duration : 1h 54mn
Bit rate mode : Constant
Bit rate : 448 Kbps
Channel(s) : 6 channels
Channel positions : Front: L C R, Side: L R, LFE
Sampling rate : 48.0 KHz
Bit depth : 16 bits
Compression mode : Lossy
Stream size : 368 MiB (3%)
Title : MVO-R5
Language : Russian
Default : Yes
Forced : No
Audio #2
ID : 3
Format : DTS
Format/Info : Digital Theater Systems
Codec ID : A_DTS
Duration : 1h 54mn
Bit rate mode : Constant
Bit rate : 1 510 Kbps
Channel(s) : 6 channels
Channel positions : Front: L C R, Side: L R, LFE
Sampling rate : 48.0 KHz
Bit depth : 24 bits
Compression mode : Lossy
Stream size : 1.21 GiB (10%)
Title : Original
Language : English
Default : No
Forced : No
Audio #3
ID : 4
Format : AC-3
Format/Info : Audio Coding 3
Format profile : Dolby Digital
Mode extension : CM (complete main)
Format settings, Endianness : Big
Codec ID : A_AC3
Duration : 1h 54mn
Bit rate mode : Constant
Bit rate : 192 Kbps
Channel(s) : 2 channels
Channel positions : Front: L R
Sampling rate : 48.0 KHz
Bit depth : 16 bits
Compression mode : Lossy
Stream size : 158 MiB (1%)
Title : Commentary with Director Kevin Macdonald
Language : English
Default : No
Forced : No
Text #1
ID : 5
Format : UTF-8
Codec ID : S_TEXT/UTF8
Codec ID/Info : UTF-8 Plain Text
Title : Sub
Language : Russian
Default : No
Forced : No
Text #2
ID : 6
Format : UTF-8
Codec ID : S_TEXT/UTF8
Codec ID/Info : UTF-8 Plain Text
Title : Sub-full
Language : English
Default : No
Forced : No
Text #3
ID : 7
Format : UTF-8
Codec ID : S_TEXT/UTF8
Codec ID/Info : UTF-8 Plain Text
Title : Sub-SDH
Language : English
Default : No
Forced : No
Text #4
ID : 8
Format : UTF-8
Codec ID : S_TEXT/UTF8
Codec ID/Info : UTF-8 Plain Text
Title : Sub-Commentary
Language : English
Default : No
Forced : No
Menu
00:00:00.000 : en:00:00:00.000
00:05:24.032 : en:00:05:24.032
00:11:49.042 : en:00:11:49.042
00:15:59.625 : en:00:15:59.625
00:22:24.843 : en:00:22:24.843
00:29:22.135 : en:00:29:22.135
00:37:14.774 : en:00:37:14.774
00:41:27.110 : en:00:41:27.110
00:46:00.675 : en:00:46:00.675
00:50:50.756 : en:00:50:50.756
00:55:32.663 : en:00:55:32.663
01:02:56.231 : en:01:02:56.231
01:10:54.959 : en:01:10:54.959
01:15:01.247 : en:01:15:01.247
01:19:49.326 : en:01:19:49.326
01:24:56.300 : en:01:24:56.300
01:31:15.929 : en:01:31:15.929
01:35:18.421 : en:01:35:18.421
01:43:09.266 : en:01:43:09.266
01:50:36.755 : en:01:50:36.755
Скриншоты
Source vs Encode



Скачать

Скачать торрент!

Как скачивать? · Что такое торрент? · Рейтинг и ограничения

Сайт не распространяет и не хранит электронные версии произведений, а лишь предоставляет доступ к создаваемому пользователями каталогу ссылок на торрент-файлы, которые содержат только списки хеш-сумм

[Профиль] [ЛС]
Показать сообщения:    
Ответить на тему

Текущее время: Сегодня 13:42

Часовой пояс: GMT + 4



Вы не можете начинать темы
Вы не можете отвечать на сообщения
Вы не можете редактировать свои сообщения
Вы не можете удалять свои сообщения
Вы не можете голосовать в опросах
Вы не можете прикреплять файлы к сообщениям
Вы не можете скачивать файлы