Король и шут / The King and the Clown / Wang-ui namja (Ли Чон Ик / Lee Jun Ik) [2005, Южная Корея, триллер, драма, история,, HDRip] VO (В. Кошкин)

Ответить на тему
 
Автор Сообщение

user ®

Стаж: 13 лет

Сообщений: 15071

Пост Пост: #1 от 18-Апр-2015 22:51

[Цитировать]

Король и шут / The King and the Clown / Wang-ui namja- -Страна: Южная Корея
Жанр: триллер, драма, история,
Год выпуска: 2005
Продолжительность: 02:00:58-Перевод: Одноголосый закадровый [В. Кошкин]-Cубтитры: нет
Оригинальная аудиодорожка: нет
Режиссер: Ли Чон Ик / Lee Jun Ik
В ролях: Кам У Сон, Чон Джин Ён, Кан Сон Ён, Ли Чжун Ги, Чан Хан Сон, Чон Сок Ён, Ли Сын Хун...
Описание: Два клоуна, живущие во времена династии Чосон, арестованы за то, что показывали сатирическое представление, которое высмеивало короля. Их привозят в королевский дворец, над ними нависает угроза казни, но им дается шанс спастись, если они смогут рассмешить короля.
Главный герой, клоун Гон Киль, хоть и мужчина, но завоевал сердце короля своей необычайной женской красотой. Ревнивая королева всякий раз пыталась унизить его, даже задумала убить его.
Релиз от -
Сэмпл: http://multi-up.com/1044370
Качество видео: HDRip
Формат видео: AVI
Видео: MPEG-4 Visual at 1532 Кбит/сек; 720 x 400 (1.800) at 23.976 fps
Аудио: AC-3 at 192 Кбит/сек; 2 канала, 48,0 КГц
Автор -
MediaInfo
Общее
Полное имя : D:\Фильмы\Азиатские\Король и шут\The King and the Clown.2005.HDRip.XviD.1400MB. rip by [Asssassin's Creed].avi
Формат : AVI
Формат/Информация : Audio Video Interleave
Размер файла : 1,46 Гбайт
Продолжительность : 2 ч. 0 м.
Общий поток : 1733 Кбит/сек
Программа кодирования : VirtualDubMod 1.5.10.3 | www.virtualdub-fr.org || (build 2550/release)
Библиотека кодирования : VirtualDubMod build 2550/release
Видео
Идентификатор : 0
Формат : MPEG-4 Visual
Профиль формата : Advanced Simple@L5
Параметр BVOP формата : 1
Параметр QPel формата : Нет
Параметр GMC формата : Без точки перехода
Параметр матрицы формата : Default (MPEG)
Идентификатор кодека : XVID
Идентификатор кодека/Подсказка : XviD
Продолжительность : 2 ч. 0 м.
Битрейт : 1532 Кбит/сек
Ширина : 720 пикселей
Высота : 400 пикселей
Соотношение сторон : 16:9
Частота кадров : 23,976 кадра/сек
Цветовое пространство : YUV
Субдискретизация насыщенности : 4:2:0
Битовая глубина : 8 бит
Тип развёртки : Прогрессивная
Метод сжатия : С потерями
Бит/(Пиксели*Кадры) : 0.222
Размер потока : 1,29 Гбайт (88%)
Библиотека кодирования : XviD 1.2.1 (UTC 2008-12-04)
Аудио
Идентификатор : 1
Формат : AC-3
Формат/Информация : Audio Coding 3
Расширение режима : CM (complete main)
Параметр Endianness формата : Big
Идентификатор кодека : 2000
Продолжительность : 2 ч. 0 м.
Вид битрейта : Постоянный
Битрейт : 192 Кбит/сек
Каналы : 2 канала
Расположение каналов : Front: L R
Частота : 48,0 КГц
Битовая глубина : 16 бит
Метод сжатия : С потерями
Размер потока : 166 Мбайт (11%)
Выравнивание : Разделение по промежуткам
Продолжительность промежутка : 42 мс. (1,00 видеокадр)
Время предзагрузки промежутка : 500 мс.
Скриншот c названием фильма Скриншоты
Скачать

Скачать торрент! Король и шут / The King and the Clown / Wang-ui namja (Ли Чон Ик / Lee Jun Ik) [2005, Южная Корея, триллер, драма, история,, HDRip] VO (В. Кошкин)

Как скачивать? · Что такое торрент? · Рейтинг и ограничения

Сайт не распространяет и не хранит электронные версии произведений, а лишь предоставляет доступ к создаваемому пользователями каталогу ссылок на торрент-файлы, которые содержат только списки хеш-сумм

[Профиль] [ЛС]
Показать сообщения:    
Ответить на тему

Текущее время: Сегодня 18:02

Часовой пояс: GMT + 4



Вы не можете начинать темы
Вы не можете отвечать на сообщения
Вы не можете редактировать свои сообщения
Вы не можете удалять свои сообщения
Вы не можете голосовать в опросах
Вы не можете прикреплять файлы к сообщениям
Вы не можете скачивать файлы